Сегодня идет свободное скачивание без начисления Download

Гриффины / Family Guy / Сезон: 12 / Серии: 1 из ?? (Сет Макфарлейн / Seth MacFarlane) [2013, Ситком, Чёрный юмор, Буффонада, Комедия, Пародия, WEB-DL 720p] MVO [Filiza Studio]

Ответить на тему
 
Автор
Сообщение

Omen ®

Стаж: 5 лет

Сообщений: 190529

Торрент-статистика

Пост 03-Окт-2013 17:40

[Цитировать]

Гриффины / Family Guy - -Страна: США
Жанр: Ситком, Чёрный юмор, Буффонада, Комедия, Пародия
Продолжительность: ~00:22:00
Год выпуска: 2013
Перевод: Профессиональный (многоголосый закадровый) Filiza Studio
Русские субтитры: нет
Режиссёр: Сет Макфарлейн / Seth MacFarlane
Роли озвучивали: Сет Макфарлейн, Алекс Борштейн, Сет Грин, Мила Кунис, Майк Генри-Озвучка студии:
Перевод на русский: Stevvie
Закадровые голоса: darkFIL, Little и Света-Описание: "Гриффины" (Family Guy) - анимационное ТВ-Шоу, созданное Сетом МакФерлайном (Seth MacFarlane) для телеканала FOX. Как нетрудно догадаться, главными героями шоу является семейка Гриффинов: тупой, но полный сумашедших идей, составляющих львиную долю шуток сериала, отец семейства Питер; его любящя и терпеливая жена Лойс, всеми силами пытающаяся превратить Гриффинов в нормальную семью; их интеллектуально развитый не по годам, вынашивающий идею мирового господства младший сын Стьюи; дочь-ботаник, обречённая из-за этого на одиночество и непонимание как в школе так и дома, Мэг; и 13-ти летний отсталый в развитии лет на 10, сын Крис. Также полноценным членом семьи является пёс Брайн - склонный к меланхолии эстет, спокойно наблюдающий с бокалом вина в лапе над приключениями Питера и остальных членов семьи (и это при всём притом, что остальные собаки в сериале не являются очеловеченными)- -Качество: WEB-DL 720p
Формат: MKV
Видео: AVC, 1280x718, 23,976 fps, ~3300 kbps
Аудио: AC3, 48Chz, 2 ch, 192 kbps [RUS, Filiza Studio]
Аудио 2: AC3, 48Chz, 6 ch, 384 kbps [ENG, Оригинал]
Субтитры: Нет
- -

Подробные технические данные

ОбщееУникальный идентификатор : 176853142086876881465622643543905018079 (0x850CAD1C2016753BA5ACF221A56A20DF)Полное имя : C:\Users\Александр\Диск\Раздачи на рутрекере\Family Guy Season 12 (2013) [WEB-DL 720p] [Filiza Studio]\Family.Guy.S12E01.Finders.Keepers.720p.WEB-DL.H.264.Filiza Studio.mkvФормат : MatroskaВерсия формата : Version 2Размер файла : 505 МбайтПродолжительность : 21 м.Общий поток : 3268 Кбит/секДата кодирования : UTC 2013-10-02 19:10:30Программа кодирования : mkvmerge v5.8.0 ('No Sleep / Pillow') built on Sep 2 2012 15:37:04Библиотека кодирования : libebml v1.2.3 + libmatroska v1.3.0
ВидеоИдентификатор : 2Формат : AVCФормат/Информация : Advanced Video CodecПрофиль формата : High@L3.1Параметр CABAC формата : НетПараметр ReFrames формата : 2 кадраИдентификатор кодека : V_MPEG4/ISO/AVCПродолжительность : 21 м.Битрейт : 2627 Кбит/секШирина : 1280 пикселейВысота : 718 пикселейСоотношение сторон : 16:9Частота кадров : 23,976 кадра/секЦветовое пространство : YUVСубдискретизация насыщенности : 4:2:0Битовая глубина : 8 битТип развёртки : ПрогрессивнаяБит/(Пиксели*Кадры) : 0.119Размер потока : 406 Мбайт (80%)Основные цвета : BT.709-5, BT.1361, IEC 61966-2-4, SMPTE RP177Характеристики трансфера : BT.709-5, BT.1361Коэффициенты матрицы : BT.709-5, BT.1361, IEC 61966-2-4 709, SMPTE RP177
Аудио #1Идентификатор : 1Формат : AC-3Формат/Информация : Audio Coding 3Расширение режима : CM (complete main)Идентификатор кодека : A_AC3Продолжительность : 21 м.Вид битрейта : ПостоянныйБитрейт : 192 Кбит/секКаналы : 2 каналаРасположение каналов : Front: L RЧастота : 48,0 КГцБитовая глубина : 16 битМетод сжатия : С потерямиРазмер потока : 29,7 Мбайт (6%)Заголовок : Filiza StudioЯзык : Russian
Аудио #2Идентификатор : 3Формат : AC-3Формат/Информация : Audio Coding 3Расширение режима : CM (complete main)Идентификатор кодека : A_AC3Продолжительность : 21 м.Вид битрейта : ПостоянныйБитрейт : 384 Кбит/секКаналы : 6 каналовРасположение каналов : Front: L C R, Side: L R, LFEЧастота : 48,0 КГцБитовая глубина : 16 битМетод сжатия : С потерямиРазмер потока : 59,3 Мбайт (12%)Заголовок : OriginalЯзык : English

Внимание! Раздача ведется путем добавления новых серий!

Чтобы начать докачку новой серии, пользователям необходимо сделать следующее:
1) Остановить скачивание,
2) Удалить старый торрент у себя из клиента - старые серии удалять не надо!
3) Скачать новый торрент и запустить его у себя в клиенте вместо старого, при этом указать клиенту путь в старую папку куда и должно происходить скачивание новых серий.
Ваш клиент при этом должен произвести хеширование старой папки (если это не произойдет - нажмите "Обновить хеш"), и будет докачивать только те серии которых у вас ещё нет. Старые файлы при этом не удаляются, а продолжают раздаваться!
По возможности, желательно не удалять старые серии как можно дольше, чтобы релизер не столько продолжал раздавать старые материалы, а смог сконцентрироваться на новых.

Список серий

01. Finders Keepers / Искатели Cокровищ
02. Vestigial Peter / Рудиментарный Питер
Вне форума [Профиль] [ЛС]
Показать сообщения:    
Ответить на тему

Текущее время: Сегодня 12:26

Часовой пояс: GMT + 3



Вы не можете начинать темы
Вы не можете отвечать на сообщения
Вы не можете редактировать свои сообщения
Вы не можете удалять свои сообщения
Вы не можете голосовать в опросах
Вы не можете прикреплять файлы к сообщениям
Вы не можете скачивать файлы