Сегодня идет свободное скачивание без начисления Download

Мост / Broen (Сезон 2 Серия 5 (10)) (2013) HDTV 720p (BaibaKo) (обновляемая)

Ответить на тему
 
Автор
Сообщение

UndegraundMen ®

Стаж: 5 лет 8 месяцев

Сообщений: 25860

Торрент-статистика

Пост 03-Окт-2013 11:00

[Цитировать]

Мост / Broen - Год: 2013
Страна: Дания, Швеция
Жанр: триллер, детектив
Продолжительность: ~ 00:59:00 серия
Перевод: Профессиональный многоголосый закадровый - BaibaKo-Режиссер: Хенрик Георгсон, Шарлотта Зилинг, Лиза Сиве
Актеры: София Хелин, Ким Бодниа, Даг Мальмберг, Рафаэль Петтерссон, Эмиль Бирк Хартманн, Аннет Линдбёк, Магнус Креппе, Сара Боберг, Ларс Симонсен, ДаниэльАдольфссон, Михаэль Моритцен-Описание:
Второй сезон датско-шведского сериала Мост начинается с кораблекрушения — судно без экипажа врезается в одну из опор Эресуннского моста. После событий первого сезона прошло тринадцать месяцев. Мартин Роде проходит курс реабилитации после потери сына, а Сага Норен продолжает работать в криминальном отделе. Однажды в диспетчерскую береговой охраны поступает сигнал о том, что замечено судно Faxborg, идущее курсом прямо на мост Эресунна. С корабля никто не отвечает, а команда береговой охраны, ступив на борт, выясняет, что экипаж куда-то пропал, а позже обнаруживает пятерых подростков, прикованных цепями к судну. Что скрывается за этим странным кораблем, кто приковал молодых людей? Это предстоит выяснить Саге Норен…-
Сэмпл: -Качество: HDTV 720p
Формат: mkv
Видео: AVC 2813 Кбит/сек 1280x720 25,000 кадров/сек
Аудио rus: AC-3, 6 каналов, 48,0 КГц 384 Кбит/сек - русский
Аудио swe: AC-3, 2 канала, 48,0 КГц 448 Кбит/сек - шведский-Релиз:
Автор перевода: Прима
Озвучка: Светлана Доманова, Татьяна Оболевич, Александр Фурман и Олекса Мельник.
Монтаж: Игорь Лихо
Обложка: tvblog-Скриншоты:
       
       

MediaInfo:

Полное имя : F:\Сериал\раздача\Bron.s02.HDTV720p.Rus.Sve.BaibaKo\Bron.s02e01.HDTV720p.Rus.Sve.BaibaKo.mkv
Формат : Matroska
Версия формата : Version 4 / Version 2
Размер файла : 1,49 Гбайт
Продолжительность : 57 м.
Общий поток : 3719 Кбит/сек
Название фильма : BaibaKo.tv presents - Мост 2х01
Дата кодирования : UTC 2013-10-01 00:21:25
Программа кодирования : mkvmerge v6.3.0 ('You can't stop me!') built on Jun 28 2013 20:09:41
Библиотека кодирования : libebml v1.3.0 + libmatroska v1.4.0
Видео
Идентификатор : 1
Формат : AVC
Формат/Информация : Advanced Video Codec
Профиль формата : [url=mailto:High@L4.1]High@L4.1[/url]
Параметр CABAC формата : Да
Параметр ReFrames формата : 9 кадров
Идентификатор кодека : V_MPEG4/ISO/AVC
Продолжительность : 57 м.
Битрейт : 2813 Кбит/сек
Ширина : 1280 пикс.
Высота : 720 пикс.
Соотношение сторон : 16:9
Частота кадров : 25,000 кадр/сек
Цветовое пространство : YUV
Подвыборка цветности : 4:2:0
Битовая глубина : 8 бит
Тип развёртки : Прогрессивная
Бит/(Пиксели*Кадры) : 0.122
Размер потока : 1,13 Гбайт (76%)
Библиотека кодирования : x264 core 138 r2358 9e941d1
Настройки программы : cabac=1 / ref=9 / deblock=1:-2:-2 / analyse=0x3:0x133 / me=umh / subme=10 / psy=1 / psy_rd=1.00:0.00 / mixed_ref=1 / me_range=24 / chroma_me=1 / trellis=2 / 8x8dct=1 / cqm=0 / deadzone=21,11 / fast_pskip=1 / chroma_qp_offset=-2 / threads=12 / lookahead_threads=2 / sliced_threads=0 / nr=0 / decimate=1 / interlaced=0 / bluray_compat=0 / constrained_intra=0 / bframes=8 / b_pyramid=2 / b_adapt=2 / b_bias=0 / direct=3 / weightb=1 / open_gop=0 / weightp=2 / keyint=250 / keyint_min=25 / scenecut=40 / intra_refresh=0 / rc_lookahead=60 / rc=crf / mbtree=1 / crf=15.0 / qcomp=0.60 / qpmin=0 / qpmax=69 / qpstep=4 / ip_ratio=1.40 / aq=1:0.80
Язык : Swedish
Аудио #1
Идентификатор : 2
Формат : AC-3
Формат/Информация : Audio Coding 3
Расширение режима : CM (complete main)
Идентификатор кодека : A_AC3
Продолжительность : 57 м.
Вид битрейта : Постоянный
Битрейт : 384 Кбит/сек
Каналы : 6 каналов
Расположение каналов : Front: L C R, Side: L R, LFE
Частота : 48,0 КГц
Битовая глубина : 16 бит
Метод сжатия : С потерями
Размер потока : 158 Мбайт (10%)
Заголовок : Rus BaibaKo.tv DD5.1
Язык : Russian
Аудио #2
Идентификатор : 3
Формат : AC-3
Формат/Информация : Audio Coding 3
Расширение режима : CM (complete main)
Идентификатор кодека : A_AC3
Продолжительность : 57 м.
Вид битрейта : Постоянный
Битрейт : 448 Кбит/сек
Каналы : 2 канала
Расположение каналов : Front: L R
Частота : 48,0 КГц
Битовая глубина : 16 бит
Метод сжатия : С потерями
Задержка видео : 200 мс.
Размер потока : 184 Мбайт (12%)
Заголовок : Sve DD5.1
Язык : Swedish

Внимание! Раздача ведётся путём добавления новых серий

Внимание! Раздача ведётся путём добавления новых серий; при каждом добавлении создаётся новый торрент.
Чтобы начать докачку новой серии, пользователям необходимо сделать следующее:
1. Остановить скачивание;
2. Удалить старый торрент у себя из клиента (старые серии удалять не надо);
3. Скачать новый торрент и запустить его у себя в клиенте вместо старого, при этом указать клиенту путь в старую папку куда и должно происходить скачивание новых серий. Ваш клиент при этом должен произвести хеширование (проверку) старой папки и будет докачивать только те серии, которых у вас ещё нет. Старые серии при этом не удаляются, а продолжают раздаваться! Eсли вы уже удалили старые серии, то предотвратить повторную закачку старых серий можно, отжав галочку в соответствующих местах при запуске нового торрента.
Вне форума [Профиль] [ЛС]

outventure2000

Стаж: 5 лет 6 месяцев

Сообщений: 12

Торрент-статистика

Пост 02-Ноя-2013 12:30 (спустя 30 дней)

[Цитировать]

UndegraundMen,
А когда будут ещё четыре серии???
Вне форума [Профиль] [ЛС]

O.S.A.

Пол:

Стаж: 5 лет

Сообщений: 4296

Откуда: СССР

Торрент-статистика

Пост 02-Ноя-2013 13:17 (спустя 47 минут)

[Цитировать]

outventure2000 писал(а):
UndegraundMen,
А когда будут ещё четыре серии???
Здесь однако не серия 5, а Серии 1—5, т.е. 5 серий...

_________________

===============================
IGNOSCITO SAEPE ALTERI, NUNQUAM TIBI
Вне форума [Профиль] [ЛС]

outventure2000

Стаж: 5 лет 6 месяцев

Сообщений: 12

Торрент-статистика

Пост 02-Ноя-2013 18:10 (спустя 4 часа)

[Цитировать]

O.S.A. писал(а):
outventure2000 писал(а):
UndegraundMen,
А когда будут ещё четыре серии???
Здесь однако не серия 5, а Серии 1—5, т.е. 5 серий...
Когда я писАл была одна - т.е. первая серия. Ясно?
Вне форума [Профиль] [ЛС]
Показать сообщения:    
Ответить на тему

Текущее время: Сегодня 02:06

Часовой пояс: GMT + 3



Вы не можете начинать темы
Вы не можете отвечать на сообщения
Вы не можете редактировать свои сообщения
Вы не можете удалять свои сообщения
Вы не можете голосовать в опросах
Вы не можете прикреплять файлы к сообщениям
Вы не можете скачивать файлы