Сегодня идет свободное скачивание без начисления Download

Родина / Homeland (2013) WEB-DLRip [сезон 3, серии 12 из 12] [LostFilm] (Обновляемая)

Ответить на тему
 
Автор
Сообщение

UndegraundMen ®

Стаж: 5 лет 4 месяца

Сообщений: 25870

Торрент-статистика

Пост 03-Окт-2013 11:01

[Цитировать]

Родина / Homeland- Год выпуска: 2013
Перевод:Многоголосый закадровый, профессиональный (LostFilm)
Жанр: Драма, Детектив, Триллер
Релиз группа:

Режиссер: Говард Гордон, Алекс Ганза, Гидеон Рэфф
Актеры: Диего Клаттенхофф, Мори Стерлинг, Морена Баккарин, Клэр Дэйнс, Дамиан Льюис, Навид Негабан, Мэнди Пэтинкин, Храч Титизиан, Омид Абтахи, Амир Арисон и др.
Описание фильма:
Николас Броди (Дамиан Льюис) — сержант морской пехоты, который возвращается домой после восьми лет плена в Ираке, а Кэрри Мэтисон (Клэр Дэйнс), офицер ЦРУ, которая подозревает, что Броди ведет двойную игру и планирует теракт.
Сэмпл:
Качество видео: WEB-DLRip
Продолжительность: ~00:58:14 серия
Видеокодек: Xvid
Битрейт видео: ~1 244 Kbps
Размер кадра: 720x400
Аудио Rus: 48 kHz, MPEG Layer 3, 2 ch, 192 Kbps

MI

General
Полное имя : D:\Новые фильмы\Родина s3\Homeland.S03E01.rus.LostFilm.TV.avi
Формат : AVI
Формат/Информация : Audio Video Interleave
Размер файла : 604 MiB
Продолжительность : 58mn 14s
Общий поток : 1 449 Kbps
Программа кодирования : Nandub v1.0rc2
Библиотека кодирования : Nandub build 1853/release
Video
Идентификатор : 0
Формат : MPEG-4 Visual
Профиль формата : Simple@L3
Параметр BVOP формата : No
Параметр QPel формата : No
Параметр GMC формата : No warppoints
Параметр матрицы формата : Default (H.263)
Идентификатор кодека : XVID
Идентификатор кодека/Подсказка : XviD
Продолжительность : 58mn 14s
Битрейт : 1 244 Kbps
Ширина : 720 pixels
Высота : 400 pixels
Соотношение сторон : 16:9
Частота кадров : 23.976 fps
Цветовое пространство : YUV
Субдискретизация насыщенности : 4:2:0
Битовая глубина : 8 bits
Тип развёртки : Progressive
Метод сжатия : Lossy
Бит/(Пиксели*Кадры) : 0.180
Размер потока : 518 MiB (86%)
Библиотека кодирования : XviD 1.2.1 (UTC 2008-12-04)
Audio
Идентификатор : 1
Формат : MPEG Audio
Версия формата : Version 1
Профиль формата : Layer 3
Режим : Joint stereo
Расширение режима : MS Stereo
Идентификатор кодека : 55
Идентификатор кодека/Подсказка : MP3
Продолжительность : 58mn 14s
Вид битрейта : Constant
Битрейт : 192 Kbps
Каналы : 2 channels
Частота : 48.0 KHz
Метод сжатия : Lossy
Размер потока : 80.0 MiB (13%)
Выравнивание : Aligned on interleaves
Продолжительность промежутка : 24 ms (0.58 video frame)
Время предзагрузки промежутка : 480 ms
Библиотека кодирования : LAME3.97 (beta)

Внимание! Раздача ведётся путём добавления новых серий

Внимание! Раздача ведётся путём добавления новых серий; при каждом добавлении создаётся новый торрент.
Чтобы начать докачку новой серии, пользователям необходимо сделать следующее:
1. Остановить скачивание;
2. Удалить старый торрент у себя из клиента (старые серии удалять не надо);
3. Скачать новый торрент и запустить его у себя в клиенте вместо старого, при этом указать клиенту путь в старую папку куда и должно происходить скачивание новых серий. Ваш клиент при этом должен произвести хеширование (проверку) старой папки и будет докачивать только те серии, которых у вас ещё нет. Старые серии при этом не удаляются, а продолжают раздаваться! Eсли вы уже удалили старые серии, то предотвратить повторную закачку старых серий можно, отжав галочку в соответствующих местах при запуске нового торрента.
Скриншоты:
       
Вне форума [Профиль] [ЛС]
Похожие темы
Форум Тема Автор Торрент Отв. Посл. сообщение
./templates/default/images/folder_dl.gif Фантастика, фэнтези, ужасы, мистика Олег Дивов | Родина слонов (2017) [FB2] }{@R0N
1 | 0

0 | 7542

9

2017-02-18 20:53
}{@R0N Последнее
./templates/default/images/folder_dl.gif Разное Виктория Бородинова | Как стать фотографом с нуля самостоятельно и начать зарабатывать. Пособие для начинающих фотографов с фото (2017) [PDF] }{@R0N
1 | 0

0 | 4629

5

2017-09-23 22:18
}{@R0N Последнее
Показать сообщения:    
Ответить на тему

Текущее время: Сегодня 13:46

Часовой пояс: GMT + 3



Вы не можете начинать темы
Вы не можете отвечать на сообщения
Вы не можете редактировать свои сообщения
Вы не можете удалять свои сообщения
Вы не можете голосовать в опросах
Вы не можете прикреплять файлы к сообщениям
Вы не можете скачивать файлы