Сегодня идет свободное скачивание без начисления Download

Роковые красотки / Femme Fatales (2011-2012) HDTVRip, WEBRip, DVDRip (Сезон 1-2, 25 серий из 25)

Ответить на тему
 
Автор
Сообщение

UndegraundMen ®

Стаж: 5 лет 3 месяца

Сообщений: 25871

Торрент-статистика

Пост 02-Окт-2013 23:06

[Цитировать]

Роковые красотки / Femme fatales (1 сезон, 13 серий из 13) (2011) HDTVRip
«Looks CAN Kill»
- Русское название : Роковые красотки
Оригинальное название: Femme fatales
Год выпуска : 2011 / 2012
Страна: США
Количество серий : сезон 1 - 13 / сезон 2 - 12
Жанр : Триллер, Детектив, Эротика
Перевод: Профессиональный (многоголосый закадровый) - Муз ТВ (1-й сезон), Sony Turbo (2-й сезон)
Субтитры: На места без перевода (1-я серия)
Релиз группа: NovaFilm (1-й сезон), To4ka (2-й сезон)
Режиссер: Дэрин Скотт
Актеры: Танита Феникс, Кристин Донлон, Катрин Аннетт, Мэдисон Дилан, Стэйси Стас, Анна Александер, Марк Симич, Тиффани Броувер, Рик Копп, Марк Крамптон и др.
Описание фильма:
Ночной сериал о влиятельных, сексуальных и опасных женщинах, которые находят экстраординарные способы справиться со своими проблемами…

ВНИМАНИЕ! Сериал содержит кадры откровенного характера и сцены с применением насилия.
Продолжительность: 25 x ~00:30:00
Качество видео: HDTVRip
Видеокодек: XviD
Битрейт видео: ~1243 kbps avg
Размер кадра: 720х400
Аудио 1#: 48.0 kHz, MP3, 2 ch ~128 Kbps avg / профессиональный (многоголосый закадровый)
Аудио 2#: 48.0 kHz, MP3, 2 ch ~128 Kbps avg / английский

Список серий:

Эпизод 1 The White Flower 10 июня 2011
Эпизод 2 Something Like Murder 27 мая 2011
Эпизод 3 Behind Locked Doors, Part One 13 мая 2011
Эпизод 4 Behind Locked Doors, Part Two 2011
Эпизод 5 Speed Date 3 июня 2011
Эпизод 6 Bad Medicine 20 мая 2011
Эпизод 7 Girls Gone Dead 17 июня 2011
Эпизод 8 Till Death Do Us Part 22 июля 2011
Эпизод 9 Help Me, Rhonda 8 июля 2011
Эпизод 10 The Clinic 15 июля 2011
Эпизод 11 Haunted 24 июня 2011
Эпизод 12 Angel & Demons 1 июля 2011
Эпизод 13 Visions, Part One 29 июля 2011
Эпизод 14 Visions, Part Two 5 августа 2011

MediaInfo:

General
Complete name : D:\femme.fatales.s01.hdtv.rus.eng\femme.fatales.s01e01.hdtv.rus.eng.avi
Format : AVI
Format/Info : Audio Video Interleave
File size : 500 MiB
Duration : 42mn 27s
Overall bit rate : 1 646 Kbps
Writing application : VirtualDubMod 1.5.10.2 (build 2540/release)
Writing library : VirtualDubMod build 2540/release
Video
ID : 0
Format : MPEG-4 Visual
Format profile : Advanced Simple@L5
Format settings, BVOP : 1
Format settings, QPel : No
Format settings, GMC : No warppoints
Format settings, Matrix : Default (MPEG)
Codec ID : XVID
Codec ID/Hint : XviD
Duration : 42mn 27s
Bit rate : 1 376 Kbps
Width : 720 pixels
Height : 400 pixels
Display aspect ratio : 16:9
Frame rate : 23.976 fps
Color space : YUV
Chroma subsampling : 4:2:0
Bit depth : 8 bits
Scan type : Progressive
Compression mode : Lossy
Bits/(Pixel*Frame) : 0.199
Stream size : 418 MiB (84%)
Writing library : XviD 64
Audio #1
ID : 1
Format : MPEG Audio
Format version : Version 1
Format profile : Layer 3
Mode : Joint stereo
Mode extension : MS Stereo
Codec ID : 55
Codec ID/Hint : MP3
Duration : 42mn 27s
Bit rate mode : Constant
Bit rate : 128 Kbps
Channel(s) : 2 channels
Sampling rate : 48.0 KHz
Compression mode : Lossy
Stream size : 38.9 MiB (8%)
Alignment : Aligned on interleaves
Interleave, duration : 42 ms (1.00 video frame)
Interleave, preload duration : 504 ms
Audio #2
ID : 2
Format : MPEG Audio
Format version : Version 1
Format profile : Layer 3
Mode : Joint stereo
Mode extension : MS Stereo
Codec ID : 55
Codec ID/Hint : MP3
Duration : 42mn 27s
Bit rate mode : Constant
Bit rate : 128 Kbps
Channel(s) : 2 channels
Sampling rate : 48.0 KHz
Compression mode : Lossy
Stream size : 38.9 MiB (8%)
Alignment : Aligned on interleaves
Interleave, duration : 42 ms (1.00 video frame)
Interleave, preload duration : 504 ms
Скриншоты:
       

Ещё скриншоты

     
-Роковые красотки / Femme fatales (2 сезон, 12 серий из 12) (2012) HDTVRip, WEBRip, DVDRip
«Looks CAN Kill»
-

Обложка

Список серий:

Эпизод 1 16 Minutes of Fame 25 мая 2012
Эпизод 2 Gun Twisted 1 июня 2012
Эпизод 3 Trophy Wife 8 июня 2012
Эпизод 4 Extracurricular Activities 15 июня 2012
Эпизод 5 Killer Instinct 22 июня 2012
Эпизод 6 Bad Science 29 июня 2012
Эпизод 7 Family Business 6 июля 2012
Эпизод 8 Jailbreak 13 июля 2012
Эпизод 9 Crazy Mary 20 июля 2012
Эпизод 10 One Man's Death 27 июля 2012
Эпизод 11 Hell Hath No Furies 3 августа 2012
Эпизод 12 Libra 10 августа 2012

MediaInfo HDTVRip:

General
Complete name : D:\femme.fatales.s02.hdtvrip.rus.eng\femme.fatales.s02e01.hdtvrip.rus.eng.avi
Format : AVI
Format/Info : Audio Video Interleave
File size : 300 MiB
Duration : 30mn 1s
Overall bit rate : 1 397 Kbps
Writing application : VirtualDubMod 1.6.0.0 SURROUND (build 2560/release)
Writing library : VirtualDubMod build 2560/release
Video
ID : 0
Format : MPEG-4 Visual
Format profile : Advanced Simple@L5
Format settings, BVOP : 1
Format settings, QPel : No
Format settings, GMC : No warppoints
Format settings, Matrix : Default (MPEG)
Codec ID : XVID
Codec ID/Hint : XviD
Duration : 30mn 1s
Bit rate : 1 127 Kbps
Width : 720 pixels
Height : 400 pixels
Display aspect ratio : 16:9
Frame rate : 23.976 fps
Color space : YUV
Chroma subsampling : 4:2:0
Bit depth : 8 bits
Scan type : Progressive
Compression mode : Lossy
Bits/(Pixel*Frame) : 0.163
Stream size : 242 MiB (81%)
Writing library : XviD 64
Audio #1
ID : 1
Format : MPEG Audio
Format version : Version 1
Format profile : Layer 3
Mode : Joint stereo
Mode extension : MS Stereo
Codec ID : 55
Codec ID/Hint : MP3
Duration : 30mn 1s
Bit rate mode : Constant
Bit rate : 128 Kbps
Channel(s) : 2 channels
Sampling rate : 48.0 KHz
Compression mode : Lossy
Stream size : 27.5 MiB (9%)
Alignment : Aligned on interleaves
Interleave, duration : 42 ms (1.00 video frame)
Interleave, preload duration : 504 ms
Audio #2
ID : 2
Format : MPEG Audio
Format version : Version 1
Format profile : Layer 3
Mode : Joint stereo
Codec ID : 55
Codec ID/Hint : MP3
Duration : 30mn 0s
Bit rate mode : Constant
Bit rate : 128 Kbps
Channel(s) : 2 channels
Sampling rate : 48.0 KHz
Compression mode : Lossy
Stream size : 27.5 MiB (9%)
Alignment : Aligned on interleaves
Interleave, duration : 42 ms (1.00 video frame)
Interleave, preload duration : 504 ms
Writing library : LAME3.98r
Encoding settings : -m j -V 4 -q 2 -lowpass 17 -b 128

MediaInfo DVDRip

General
Complete name : D:\Femme Fatales\femme.fatales.s02.hdtvrip.rus.eng\femme.fatales.s02e03.dvdrip.rus.eng.avi
Format : AVI
Format/Info : Audio Video Interleave
File size : 300 MiB
Duration : 29mn 11s
Overall bit rate : 1 437 Kbps
Writing application : VirtualDubMod 1.6.0.0 SURROUND (build 2560/release)
Writing library : VirtualDubMod build 2560/release
Video
ID : 0
Format : MPEG-4 Visual
Format profile : Advanced Simple@L5
Format settings, BVOP : 1
Format settings, QPel : No
Format settings, GMC : No warppoints
Format settings, Matrix : Default (MPEG)
Codec ID : XVID
Codec ID/Hint : XviD
Duration : 29mn 11s
Bit rate : 1 167 Kbps
Width : 720 pixels
Height : 400 pixels
Display aspect ratio : 16:9
Frame rate : 23.976 fps
Color space : YUV
Chroma subsampling : 4:2:0
Bit depth : 8 bits
Scan type : Progressive
Compression mode : Lossy
Bits/(Pixel*Frame) : 0.169
Stream size : 244 MiB (81%)
Writing library : XviD 64
Audio #1
ID : 1
Format : MPEG Audio
Format version : Version 1
Format profile : Layer 3
Mode : Joint stereo
Mode extension : MS Stereo
Codec ID : 55
Codec ID/Hint : MP3
Duration : 29mn 11s
Bit rate mode : Constant
Bit rate : 128 Kbps
Channel(s) : 2 channels
Sampling rate : 48.0 KHz
Compression mode : Lossy
Stream size : 26.7 MiB (9%)
Alignment : Aligned on interleaves
Interleave, duration : 42 ms (1.00 video frame)
Interleave, preload duration : 504 ms
Audio #2
ID : 2
Format : MPEG Audio
Format version : Version 1
Format profile : Layer 3
Codec ID : 55
Codec ID/Hint : MP3
Duration : 29mn 11s
Bit rate mode : Constant
Bit rate : 128 Kbps
Channel(s) : 2 channels
Sampling rate : 48.0 KHz
Compression mode : Lossy
Stream size : 26.7 MiB (9%)
Alignment : Split accross interleaves
Interleave, duration : 42 ms (1.00 video frame)
Interleave, preload duration : 500 ms

MediaInfo WEBRip

General
Complete name : D:\Femme Fatales\femme.fatales.s02.hdtvrip.rus.eng\femme.fatales.s02e07.p1.webrip.rus.avi
Format : AVI
Format/Info : Audio Video Interleave
File size : 250 MiB
Duration : 25mn 29s
Overall bit rate : 1 373 Kbps
Writing application : VirtualDubMod 1.6.0.0 SURROUND (build 2560/release)
Writing library : VirtualDubMod build 2560/release
Video
ID : 0
Format : MPEG-4 Visual
Format profile : Advanced Simple@L5
Format settings, BVOP : 1
Format settings, QPel : No
Format settings, GMC : No warppoints
Format settings, Matrix : Default (MPEG)
Codec ID : XVID
Codec ID/Hint : XviD
Duration : 25mn 29s
Bit rate : 1 235 Kbps
Width : 720 pixels
Height : 400 pixels
Display aspect ratio : 16:9
Frame rate : 25.000 fps
Color space : YUV
Chroma subsampling : 4:2:0
Bit depth : 8 bits
Scan type : Progressive
Compression mode : Lossy
Bits/(Pixel*Frame) : 0.172
Stream size : 225 MiB (90%)
Writing library : XviD 64
Audio
ID : 1
Format : MPEG Audio
Format version : Version 1
Format profile : Layer 3
Codec ID : 55
Codec ID/Hint : MP3
Duration : 25mn 29s
Bit rate mode : Constant
Bit rate : 128 Kbps
Channel(s) : 2 channels
Sampling rate : 48.0 KHz
Compression mode : Lossy
Stream size : 23.3 MiB (9%)
Alignment : Split accross interleaves
Interleave, duration : 40 ms (1.00 video frame)
Interleave, preload duration : 500 ms
Скриншоты HDTVRip:            

Скриншоты DVDRip

             

Скриншоты WEBRip

             
Время раздачи : 24/7
Вне форума [Профиль] [ЛС]
Похожие темы
Форум Тема Автор Торрент Отв. Посл. сообщение
./templates/default/images/folder_dl.gif Справочники, энциклопедии и словари Пимслер | Английский для русскоговорящих (Pimsleur. English for Russian Speakers) 1, 2, 3 части (90 уроков + 21 для чтения) [2010] [MP3+PDF+DOC] Omen
1 | 0

0 | 1456

20

2014-06-20 21:10
Omen Последнее
Показать сообщения:    
Ответить на тему

Текущее время: Сегодня 03:06

Часовой пояс: GMT + 3



Вы не можете начинать темы
Вы не можете отвечать на сообщения
Вы не можете редактировать свои сообщения
Вы не можете удалять свои сообщения
Вы не можете голосовать в опросах
Вы не можете прикреплять файлы к сообщениям
Вы не можете скачивать файлы