Сегодня идет свободное скачивание без начисления Download

Куми-Куми / Qumi-Qumi (Владимир Пономарев) (Комедия, Детский 2012) (Сезон 1, Серии 1-10 из 52) [HDRip, 1080p] [Обновляемая]

Ответить на тему
 
Автор
Сообщение

Omen ®

Стаж: 5 лет

Сообщений: 190529

Торрент-статистика

Пост 02-Окт-2013 12:20

[Цитировать]

Куми-Куми / Qumi-Qumi - Русское название: Куми-Куми
Оригинальное название: Qumi-Qumi
Год выпуска: 2012
Жанр: Комедия, Детский
Описание:
Удивительный мир Куми-Куми делят между собой три племени: колдуны, ученые и военные. Главные герои сериала - Джуга, Юси и Шумадан - происходят из разных племен, но это не мешает их дружбе. Вместе они попадают в самые невероятные истории, выпутаться из которых бывает очень непросто. Часто ситуация осложняется тем, что и Джуга, и Шумадан по уши влюблены в красавицу Юси.
Куми-Куми — это волшебный мир с красочными ландшафтами, где обитают фантастические существа — племена Юми, Шуми и Джуми. Каждое племя считает своих соседей чудаками, поэтому они не ищут контактов друг с другом, хоть и говорят на одном «тарабарском» языке, интуитивно понятном каждому.
Отличительной чертой мультсериала является почти полное отсутствие диалогов. Герои разговаривают на выдуманном куми-языке, который понятен абсолютно всем детям и некоторым взрослым.
Проект способствует развитию фантазии и образного мышления у детей.
Режиссер: Владимир Пономарев
Роли озвучивали: Александр Власов, Алина Рин, Марьяна Спивак, Марк Томпсон
Продолжительность: 10 х ~00:11:00
Перевод: Не требуется
Видеокодек: MPEG-4 AVC/H.264
Битрейт видео: ~12.60 Mbps
Размер кадра: 1920 x 1080
Качество видео: HDRip
Аудиокодек: AAC 2.0
Битрейт аудио: 256 Kbps
Сэмпл: Ссылка
Доп. информация: Официальный сайт сериала http://www.qumi-qumi.com/

Куми-словарь

Аба - Я.
Аларма - Внимание! Тревога!
Ащщщ - Круто! Хорошо!
Бадуга - Беда, опасность.
Байпопо - Волшебство, необыкновенное явление.
Би-Бу-Бип! - Машина, устройство.
Бухон - Любовь, праздник.
Гадым - Привет! Как дела?
Джомана - Супер! Отлично!
Дрюка - Крутая штуковина, полезная вещь.
Кам-кам-кам - Пойдем со мной.
Куми-Куми - Друзья.
Лака-лака - Нравится! Замечательно!
Няма-няма - Вкуснотища!
Суно - Солнце.
Сяма - Спасибо!
Уба - Ты.
Углюк - Не понимаю…
Хаба-хаба - Много и долго гулять.
Хабарра - Воинственный клич: Хватай! Держи! Лови!

Список серий

01 серия "Легенда" (LEGEND)
02 серия "Солнечная энергия" (SOLAR ENERGY)
03 серия "Мусорная жаба" (TRASH TOAD)
04 серия "Рыбалка" (FISHING)
05 серия "Облачный край" (CLOUDIES)
06 серия "Новый год" (SNOWMAN)
07 серия "Ойло" (OILO)
08 серия "Червячок" (WORM)
09 серия "Третий глаз" (3RD EYE)
10 серия "Робот" (ROBOT)

MediaInfo

Общее
Полное имя : \EP01_LEGEND_TB.mp4
Формат : MPEG-4
Профиль формата : Base Media / Version 2
Идентификатор кодека : mp42
Размер файла : 1024 Мбайт
Продолжительность : 11 м.
Общий поток : 12,9 Мбит/сек
Дата кодирования : UTC 2012-11-06 20:57:10
Дата пометки : UTC 2012-11-06 20:57:43
Видео
Идентификатор : 1
Формат : AVC
Формат/Информация : Advanced Video Codec
Профиль формата : [url=mailto:Baseline@L4.2]Baseline@L4.2[/url]
Параметр CABAC формата : Нет
Параметр ReFrames формата : 2 кадра
Параметр GOP формата : M=1, N=125
Идентификатор кодека : avc1
Идентификатор кодека/Информация : Advanced Video Coding
Продолжительность : 11 м.
Битрейт : 12,6 Мбит/сек
Ширина : 1920 пикселей
Высота : 1080 пикселей
Соотношение сторон : 16:9
Режим частоты кадров : Постоянный
Частота кадров : 25,000 кадров/сек
Цветовое пространство : YUV
Субдискретизация насыщенности : 4:2:0
Битовая глубина : 8 бит
Тип развёртки : Прогрессивная
Бит/(Пиксели*Кадры) : 0.243
Размер потока : 1003 Мбайт (98%)
Язык : English
Дата кодирования : UTC 2012-11-06 20:57:10
Дата пометки : UTC 2012-11-06 20:57:43
Основные цвета : BT.709
Характеристики трансфера : BT.709
Коэффициенты матрицы : BT.709
Аудио
Идентификатор : 2
Формат : AAC
Формат/Информация : Advanced Audio Codec
Профиль формата : LC
Идентификатор кодека : 40
Продолжительность : 11 м.
Вид битрейта : Постоянный
Битрейт : 256 Кбит/сек
Каналы : 2 канала
Расположение каналов : Front: L R
Частота : 48,0 КГц
Метод сжатия : С потерями
Размер потока : 20,4 Мбайт (2%)
Язык : English
Дата кодирования : UTC 2012-11-06 20:57:10
Дата пометки : UTC 2012-11-06 20:57:43
Скриншоты:
         
         
Вне форума [Профиль] [ЛС]
Показать сообщения:    
Ответить на тему

Текущее время: Сегодня 06:36

Часовой пояс: GMT + 3



Вы не можете начинать темы
Вы не можете отвечать на сообщения
Вы не можете редактировать свои сообщения
Вы не можете удалять свои сообщения
Вы не можете голосовать в опросах
Вы не можете прикреплять файлы к сообщениям
Вы не можете скачивать файлы