Сегодня идет свободное скачивание без начисления Download

Во все тяжкие / Breaking Bad [Сезон 5, серия 16 (16)] (2013) HDTVRip (Kerob)

Ответить на тему
 
Автор
Сообщение

UndegraundMen ®

Стаж: 5 лет 10 месяцев

Сообщений: 25860

Торрент-статистика

Пост 30-Сен-2013 17:00

[Цитировать]

Во все тяжкие / Breaking Bad [Сезон 5, серия 16 (16)] (2013) HDTVRip (Kerob)- Русское название: Во все тяжкие
Оригинальное название: Breaking Bad
Год выпуска: 2013
Жанр: Драма, Криминал

Режиссер: Брайан Крэнстон
Актеры: Брайан Крэнстон, Анна Ганн, Аарон Пол, Дин Норрис, Бетси Брандт, АрДжей Митт, Боб Оденкёрк
Описание фильма:Школьный учитель химии Уолтер Уайт узнаёт, что смертельно болен раком лёгких. Учитывая сложное финансовое состояние дел семьи, а так же что его сын инвалид, жена беременна вторым ребенком, Уолтер решает заняться изготовлением метамфетамина. Для этого он привлекает своего бывшего ученика Джесси Пинкмана.Продолжительность: 00:55:35
Качество видео: HDTVRip
Перевод: одноголосый закадровый (Kerob)
Видео: 720х400, 832 Кбит/с
Audio 1 Rus: MP3, 2ch, 192 Kbps
Audio 2 Eng: MP3, 2ch, 192 Kbps

MediaInfo

Общее
Полное имя : Vo.vse.tyazhkie.S05E16.Kerob.HDTVRip.avi
Формат : AVI
Формат/Информация : Audio Video Interleave
Размер файла : 489 Мбайт
Продолжительность : 55 м.
Общий поток : 1230 Кбит/сек
Программа кодирования : VirtualDubMod 1.5.10.2 (build 2540/release)
Библиотека кодирования : VirtualDubMod build 2540/release
Видео
Идентификатор : 0
Формат : MPEG-4 Visual
Профиль формата : Advanced Simple@L5
Параметр BVOP формата : 2
Параметр QPel формата : Нет
Параметр GMC формата : Без точки перехода
Параметр матрицы формата : Default (MPEG)
Идентификатор кодека : XVID
Идентификатор кодека/Подсказка : XviD
Продолжительность : 55 м.
Битрейт : 832 Кбит/сек
Ширина : 720 пикселей
Высота : 400 пикселей
Соотношение сторон : 16:9
Частота кадров : 23,976 кадра/сек
Цветовое пространство : YUV
Субдискретизация насыщенности : 4:2:0
Битовая глубина : 8 бит
Тип развёртки : Прогрессивная
Метод сжатия : С потерями
Бит/(Пиксели*Кадры) : 0.120
Размер потока : 331 Мбайт (68%)
Библиотека кодирования : XviD 1.2.1 (UTC 2008-12-04)
Аудио #1
Идентификатор : 1
Формат : MPEG Audio
Версия формата : Version 1
Профиль формата : Layer 3
Режим : Joint stereo
Идентификатор кодека : 55
Идентификатор кодека/Подсказка : MP3
Продолжительность : 55 м.
Вид битрейта : Постоянный
Битрейт : 192 Кбит/сек
Каналы : 2 канала
Частота : 48,0 КГц
Метод сжатия : С потерями
Размер потока : 76,4 Мбайт (16%)
Выравнивание : Соединение по промежуткам
Продолжительность промежутка : 42 мс. (1,00 видеокадр)
Время предзагрузки промежутка : 504 мс.
Аудио #2
Идентификатор : 2
Формат : MPEG Audio
Версия формата : Version 1
Профиль формата : Layer 3
Идентификатор кодека : 55
Идентификатор кодека/Подсказка : MP3
Продолжительность : 55 м.
Вид битрейта : Постоянный
Битрейт : 192 Кбит/сек
Каналы : 2 канала
Частота : 48,0 КГц
Метод сжатия : С потерями
Размер потока : 76,3 Мбайт (16%)
Выравнивание : Разделение по промежуткам
Продолжительность промежутка : 42 мс. (1,00 видеокадр)
Время предзагрузки промежутка : 500 мс.
Библиотека кодирования : LAME3.98.2
Скриншоты:
         
Вне форума [Профиль] [ЛС]
Показать сообщения:    
Ответить на тему

Текущее время: Сегодня 14:26

Часовой пояс: GMT + 3



Вы не можете начинать темы
Вы не можете отвечать на сообщения
Вы не можете редактировать свои сообщения
Вы не можете удалять свои сообщения
Вы не можете голосовать в опросах
Вы не можете прикреплять файлы к сообщениям
Вы не можете скачивать файлы