Сегодня идет свободное скачивание без начисления Download

Черный список / The Blacklist (2013) WEB-DLRip (Сезон 1 / Серии 1 из ??) To4ka (Обновляемая)

Ответить на тему
 
Автор
Сообщение

UndegraundMen ®

Стаж: 5 лет 8 месяцев

Сообщений: 25860

Торрент-статистика

Пост 29-Сен-2013 23:02

[Цитировать]

Черный список / The Blacklist (2013) WEB-DLRip (Сезон 1 / Серии 1 из ??) To4ka (Обновляемая)- Год выпуска: 2013
Страна: США
Жанр: драма, криминал
Перевод: Двухголосый закадровый, любительский - To4ka

Автор перевода: Wildberry, segrey, Needrace, vlad62co, stormageddon

Дата мировой премьеры: 23 сентября 2013
Режиссер: Джо Карнахан
Актеры: Джеймс Спэйдер, Меган Бун, Диего Клаттенхофф, Гарри Дж. Ленникс, Райан Игголд, Ильфенеш Хадера, Джессика Ши Элверсон, Чарльз Бэйкер, Дельфина Белль, Ник Блеймаер и др.
Описание фильма:
На протяжении десятилетий бывший правительственный агент Рэймонд Реддингтон был одним из самых разыскиваемых беглецов ФБР. Неожиданно он решает сдаться…
Продолжительность: ~00:45:00 серия
Качество видео: WEB-DLRip
Видеокодек: Xvid
Формат: AVI
Битрейт видео: ~1124 kb/s
Размер кадра: 720х400 (16:9)
Аудио Rus: (MPEG Layer 3, 48,0 kHz, 2 ch, 128 kb/s) - двухголосый закадровый
Аудио Eng: (MPEG Layer 3, 48,0 kHz, 2 ch, 128 kb/s) - оригинал Сэмпл

MediaInfo

Общее
Полное имя : D:\Черный список (Сезон 1) The Blacklist (2013) WEB-DLRip - To4ka\The.Blacklist.s01e01.WEB-DLRip.Rus.Eng..avi
Формат : AVI
Формат/Информация : Audio Video Interleave
Размер файла : 450 Мбайт
Продолжительность : 45 м.
Общий поток : 1394 Кбит/сек
Программа кодирования : VirtualDubModRus 1.5.10.2 (build 2542/release)
Библиотека кодирования : VirtualDubMod build 2542/release
Видео
Идентификатор : 0
Формат : MPEG-4 Visual
Профиль формата : Advanced Simple@L5
Параметр BVOP формата : 1
Параметр QPel формата : Нет
Параметр GMC формата : Без точки перехода
Параметр матрицы формата : Выборочная
Идентификатор кодека : XVID
Идентификатор кодека/Подсказка : XviD
Продолжительность : 45 м.
Битрейт : 1124 Кбит/сек
Ширина : 720 пикселей
Высота : 400 пикселей
Соотношение сторон : 16:9
Частота кадров : 23,976 кадра/сек
Цветовое пространство : YUV
Субдискретизация насыщенности : 4:2:0
Битовая глубина : 8 бит
Тип развёртки : Прогрессивная
Метод сжатия : С потерями
Бит/(Пиксели*Кадры) : 0.163
Размер потока : 363 Мбайт (81%)
Библиотека кодирования : XviD 64
Аудио #1
Идентификатор : 1
Формат : MPEG Audio
Версия формата : Version 1
Профиль формата : Layer 3
Режим : Joint stereo
Расширение режима : MS Stereo
Идентификатор кодека : 55
Идентификатор кодека/Подсказка : MP3
Продолжительность : 45 м.
Вид битрейта : Постоянный
Битрейт : 128 Кбит/сек
Каналы : 2 канала
Частота : 48,0 КГц
Метод сжатия : С потерями
Размер потока : 41,3 Мбайт (9%)
Выравнивание : Соединение по промежуткам
Продолжительность промежутка : 42 мс. (1,00 видеокадр)
Время предзагрузки промежутка : 504 мс.
Аудио #2
Идентификатор : 2
Формат : MPEG Audio
Версия формата : Version 1
Профиль формата : Layer 3
Режим : Joint stereo
Расширение режима : MS Stereo
Идентификатор кодека : 55
Идентификатор кодека/Подсказка : MP3
Продолжительность : 45 м.
Вид битрейта : Постоянный
Битрейт : 128 Кбит/сек
Каналы : 2 канала
Частота : 48,0 КГц
Метод сжатия : С потерями
Размер потока : 41,3 Мбайт (9%)
Выравнивание : Соединение по промежуткам
Продолжительность промежутка : 42 мс. (1,00 видеокадр)
Время предзагрузки промежутка : 504 мс.

Раздача ведётся путём добавления новых серий

Раздача ведётся путём добавления новых серий; при каждом добавлении создаётся новый торрент. Чтобы начать докачку новой серии, пользователям необходимо сделать следующее:
(1) остановить скачивание,
(2) удалить старый торрент у себя из клиента (старые серии удалять не надо),
(3) скачать новый торрент и запустить его у себя в клиенте вместо старого, при этом указать клиенту путь в старую папку куда и должно происходить скачивание новых серий.
Ваш клиент при этом должен произвести хеширование (проверку) старой папки (если не производит сам - помогите ему сделать это), и будет докачивать только те серии которых у вас ещё нет. Старые серии при этом не удаляются, а продолжают раздаваться!
Eсли вы уже удалили старые серии, то предотвратить повторную закачку старых серий можно, отжав галочку в соответствующих местах при запуске нового торрента. По возможности, желательно не удалять старые серии как можно дольше чтобы релизёр не столько продолжал раздавать старые серии, а смог сконцентрироваться на новых.
Скриншоты:
         
Время раздачи: 24/7 - круглосуточно (по возможности)
Вне форума [Профиль] [ЛС]
Похожие темы
Форум Тема Автор Торрент Отв. Посл. сообщение
./templates/default/images/folder_dl.gif Детская литература Екатерина Вильмонт, Андрей Трошкин и др. | Черный котенок - Детский детектив - Комплект из 155 книг [1996-2010] [FB2] Omen
0 | 1

0 | 2401

6

2011-07-18 10:49
Omen Последнее
Показать сообщения:    
Ответить на тему

Текущее время: Сегодня 20:57

Часовой пояс: GMT + 3



Вы не можете начинать темы
Вы не можете отвечать на сообщения
Вы не можете редактировать свои сообщения
Вы не можете удалять свои сообщения
Вы не можете голосовать в опросах
Вы не можете прикреплять файлы к сообщениям
Вы не можете скачивать файлы