Сегодня идет свободное скачивание без начисления Download

Человек-радар с Луны / Radar Men from the Moon (1952) TVRip (12 серий из 12)

Ответить на тему
 
Автор
Сообщение

UndegraundMen ®

Стаж: 5 лет 6 месяцев

Сообщений: 25861

Торрент-статистика

Пост 29-Сен-2013 23:02

[Цитировать]

Человек-радар с Луны / Radar Men from the Moon (1952) TVRip (12 серий из 12)- Год выпуска: 1952
Жанр: Фантастика, Приключения, Семейный
Перевод: Одноголосый закадровый, авторский
Озвучка / Автор перевода: Трамвай-фильм
Вид субтитров: Отсутствуют
Релиз группа: Трамвай-фильм
Режиссер: Фред Брэннон
Актеры: Джордж Вэланс, Элин Таун, Рой Бэркрофт, Уильям Беквилл, Клайтон Мур
Описание фильма:
Волна террора на Земле вынуждает отправиться супер-герою Коммандо Коди, на Луну, откуда злой диктатор Рэтик посылает своих шпионов уничтожать инфраструктуру землян, готовя нашу планету к завоеванию.
Все релизы (Человек-радар с Луны)

Продолжительность: Первая серия: 00:20:04 + 11 x ~00:13:00
Качество видео: TVRip
Сэмпл
Видеокодек: VP80
Битрейт видео: ~624 кбит/с
Размер кадра: 640х480
Аудио №1: Vorbis, 128 кбит/с, 2 канала (Английский оригинал)
Аудио №2: MP3, 128 кбит/с, 2 канала (Русский перевод):

Дополнительная информация:

Сериал находится в Общественном достоянии. В контейнере сохранен оригинал озвучки, и мой перевод (стоит по умолчанию).
Сделать этот сериал я рвался ещё с 2009 года, исходники взяты с arhive.org

МедиаИнфо

Format : Matroska
Format version : Version 2
File size : 79.1 MiB
Duration : 12mn 18s
Overall bit rate mode : Variable
Overall bit rate : 898 Kbps
Encoded date : UTC 2013-09-28 12:07:02
Writing application : mkvmerge v4.6.0 ('Still Crazy After All These Years') сборка от Mar 10 2011 02:50:32
Writing library : libebml v1.2.0 + libmatroska v1.1.0
Video
ID : 1
Format : VP8
Codec ID : V_VP8
Bit rate : 624 Kbps
Width : 640 pixels
Height : 480 pixels
Display aspect ratio : 4:3
Frame rate mode : Variable
Compression mode : Lossy
Default : Yes
Forced : No
Audio #1
ID : 2
Format : Vorbis
Format settings, Floor : 1
Codec ID : A_VORBIS
Duration : 12mn 18s
Bit rate mode : Variable
Bit rate : 128 Kbps
Channel(s) : 2 channels
Sampling rate : 44.1 KHz
Compression mode : Lossy
Delay relative to video : -25ms
Stream size : 11.3 MiB (14%)
Title : оригинал
Language : English
Default : No
Forced : No
Writing application : Google
Audio #2
ID : 3
Format : MPEG Audio
Format version : Version 1
Format profile : Layer 3
Muxing mode : Header stripping
Codec ID : A_MPEG/L3
Codec ID/Hint : MP3
Duration : 12mn 18s
Bit rate mode : Constant
Bit rate : 128 Kbps
Channel(s) : 2 channels
Sampling rate : 44.1 KHz
Compression mode : Lossy
Delay relative to video : -25ms
Stream size : 11.3 MiB (14%)
Title : перевод
Writing library : LAME3.99r
Encoding settings : -m s -V 4 -q 3 -lowpass 17 -b 128
Language : Russian
Default : Yes
Forced : Yes
Cкриншоты:
       
Время раздачи: с 20:00 до 23:30 (будни) , с 13:00 до 23:30 (выходные)
Вне форума [Профиль] [ЛС]
Похожие темы
Форум Тема Автор Торрент Отв. Посл. сообщение
./templates/default/images/folder_dl.gif Обучающее видео Сергей Вячеславович Савельев - Управление мозгом человека [2015, лекция, наука, морфология, эволюция, CAMRip, rus] Omen
1 | 0

0 | 2005

25

2015-04-20 18:00
Omen Последнее
./templates/default/images/folder_dl.gif Новинки (BD|HDTV|DVD) Человек-паук: Возвращение домой / Spider-Man: Homecoming (Джон Уоттс) [2017 г., Фантастика, боевик, приключения, WEB-DL 1080p] DUB | iTunes Theseus
1 | 0

0 | 5678

14

2017-09-28 12:53
Theseus Последнее
Показать сообщения:    
Ответить на тему

Текущее время: Сегодня 16:42

Часовой пояс: GMT + 3



Вы не можете начинать темы
Вы не можете отвечать на сообщения
Вы не можете редактировать свои сообщения
Вы не можете удалять свои сообщения
Вы не можете голосовать в опросах
Вы не можете прикреплять файлы к сообщениям
Вы не можете скачивать файлы