Сегодня идет свободное скачивание без начисления Download

Элементарно / Elementary (2013) WEB-DL [720p] (Сезон 2, серии 1 из ?) [NewStudio] (обновялемая)

Ответить на тему
 
Автор
Сообщение

UndegraundMen ®

Стаж: 5 лет 6 месяцев

Сообщений: 25861

Торрент-статистика

Пост 29-Сен-2013 17:06

[Цитировать]

Элементарно / Elementary (2013) WEB-DL [720p] (Сезон 2, серии 1 из ?) [NewStudio] (обновялемая)- Год выпуска: 2013
Производство: США , CBS
Жанр: Детектив, Драма
Вид субтитров: Отсутствуют
Перевод: Многоголосый закадровый (NewStudio)
Режиссер: Джон Полсон
Актеры: Джонни Ли Миллер, Люси Лью, Джон Майкл Хилл, Эйдан Куинн, Рис Иванс и др.
Описание фильма:
Казалось бы, что может быть привычнее, чем детективная парочка «Холмс и Ватсон». Однако действие сериала разворачивается в Нью-Йорке. Новый город — новые сыщик и у него новый спутник спутница…

Сэмпл: Скачать
Продолжительность: 1 серия x ~00:43:00
Качество видео: WEB-DL
Видеокодек: MPEG-4 AVC/H.264
Битрейт видео: ~4600 Kbps
Размер кадра: 1280x720
Продолжительность: 00:43:18.816
Видео: 1280x720 (16:9), 23.976 fps, V_MPEG4/ISO/AVC, 3 756 Kbps
Аудио #1: Русский 48.0 KHz, , 6 channels, CBR 384 Kbps — многоголосый закадровый
Аудио #2: Английский 48.0 KHz, , 6 channels, CBR 384 Kbps — оригинал
Автор перевода: Александра Цернант
Релиз группа: NewStudio

MediaInfo

General
Count : 280
Count of stream of this kind : 1
Kind of stream : General
Kind of stream : General
Stream identifier : 0
Inform : Matroska: 1.40 GiB, 43mn 18s
Unique ID : 185093287580479706499316069365576492642
Unique ID : 185093287580479706499316069365576492642 (0x8B3FABA641D2E9D0B0E6FCB6AFBDE662)
Count of video streams : 1
Count of audio streams : 2
Video_Format_List : AVC
Video_Format_WithHint_List : AVC
Codecs Video : AVC
Video_Language_List : English
Audio_Format_List : AC-3 / AC-3
Audio_Format_WithHint_List : AC-3 / AC-3
Audio codecs : AC3 / AC3
Audio_Language_List : Russian / English
Complete name : /mnt/cmn/Torrents/Elementary. Season 2. 720p [NewStudio]/Elementary.S02E01.WEBDL.720p.NewStudio.TV.mkv
Folder name : /mnt/cmn/Torrents/Elementary. Season 2. 720p [NewStudio]
File name : Elementary.S02E01.WEBDL.720p.NewStudio.TV
File extension : mkv
Format : Matroska
Format : Matroska
Format/Url : http://packs.matroska.org/
Format/Extensions usually used : mkv mk3d mka mks
Commercial name : Matroska
Format version : Version 4 / Version 2
Codec : Matroska
Codec : Matroska
Codec/Url : http://packs.matroska.org/
Codec/Extensions usually used : mkv mk3d mka mks
File size : 1499476128
File size : 1.40 GiB
File size : 1 GiB
File size : 1.4 GiB
File size : 1.40 GiB
File size : 1.396 GiB
Duration : 2598816
Duration : 43mn 18s
Duration : 43mn 18s 816ms
Duration : 43mn 18s
Duration : 00:43:18.816
Overall bit rate : 4615875
Overall bit rate : 4 616 Kbps
Stream size : 29843639
Stream size : 28.5 MiB (2%)
Stream size : 28 MiB
Stream size : 28 MiB
Stream size : 28.5 MiB
Stream size : 28.46 MiB
Stream size : 28.5 MiB (2%)
Proportion of this stream : 0.01990
Encoded date : UTC 2013-09-28 17:43:42
File last modification date : UTC 2013-09-28 21:31:12
File last modification date (local) : 2013-09-29 01:31:12
Writing application : mkvmerge v6.4.1 ('Omega Point') built on Sep 16 2013 22:05:10
Writing library : libebml v1.3.0 + libmatroska v1.4.1
Writing library : libebml v1.3.0 + libmatroska v1.4.1
Video
Count : 256
Count of stream of this kind : 1
Kind of stream : Video
Kind of stream : Video
Stream identifier : 0
StreamOrder : 0
Inform : English, 3 756 Kbps, 1280*720 (16:9), at 23.976 fps, AVC (High@L3.1) (2 Ref Frames)
ID : 1
ID : 1
Unique ID : 11580814423561245083
Format : AVC
Format/Info : Advanced Video Codec
Format/Url : http://developers.videolan.org/x264.html
Commercial name : AVC
Format profile : [url=mailto:High@L3.1]High@L3.1[/url]
Format settings : 2 Ref Frames
Format settings, CABAC : No
Format settings, CABAC : No
Format settings, ReFrames : 2
Format settings, ReFrames : 2 frames
Internet media type : video/H264
Codec ID : V_MPEG4/ISO/AVC
Codec ID/Url : http://ffdshow-tryout.sourceforge.net/
Codec : V_MPEG4/ISO/AVC
Codec : AVC
Codec/Family : AVC
Codec/Info : Advanced Video Codec
Codec/Url : http://ffdshow-tryout.sourceforge.net/
Codec profile : [url=mailto:High@L3.1]High@L3.1[/url]
Codec settings : 2 Ref Frames
Codec settings, CABAC : No
Codec_Settings_RefFrames : 2
Duration : 2598807
Duration : 43mn 18s
Duration : 43mn 18s 807ms
Duration : 43mn 18s
Duration : 00:43:18.807
Bit rate : 3756019
Bit rate : 3 756 Kbps
Width : 1280
Width : 1 280 pixels
Height : 720
Height : 720 pixels
Pixel aspect ratio : 1.000
Display aspect ratio : 1.778
Display aspect ratio : 16:9
Frame rate mode : CFR
Frame rate mode : Constant
Frame rate : 23.976
Frame rate : 23.976 fps
Frame count : 62309
Resolution : 8
Resolution : 8 bits
Colorimetry : 4:2:0
Color space : YUV
Chroma subsampling : 4:2:0
Bit depth : 8
Bit depth : 8 bits
Scan type : Progressive
Scan type : Progressive
Interlacement : PPF
Interlacement : Progressive
Bits/(Pixel*Frame) : 0.170
Delay : 0
Delay : 00:00:00.000
Delay, origin : Container
Delay, origin : Container
Stream size : 1220146153
Stream size : 1.14 GiB (81%)
Stream size : 1 GiB
Stream size : 1.1 GiB
Stream size : 1.14 GiB
Stream size : 1.136 GiB
Stream size : 1.14 GiB (81%)
Proportion of this stream : 0.81371
Language : en
Language : English
Language : English
Language : en
Language : eng
Language : en
Default : Yes
Default : Yes
Forced : No
Forced : No
Color primaries : BT.709
Transfer characteristics : BT.709
Matrix coefficients : BT.709
Audio #1
Count : 237
Count of stream of this kind : 2
Kind of stream : Audio
Kind of stream : Audio
Stream identifier : 0
Stream identifier : 1
StreamOrder : 1
Inform : Russian, 384 Kbps, 48.0 KHz, 16 bits, 6 channels, AC-3
ID : 2
ID : 2
Unique ID : 15711931866817130416
Format : AC-3
Format/Info : Audio Coding 3
Commercial name : AC-3
Mode extension : CM (complete main)
Format settings, Endianness : Big
Codec ID : A_AC3
Codec : AC3
Codec : AC3
Codec/Family : AC3
Codec/Info : Dolby AC3
Duration : 2598816
Duration : 43mn 18s
Duration : 43mn 18s 816ms
Duration : 43mn 18s
Duration : 00:43:18.816
Bit rate mode : CBR
Bit rate mode : Constant
Bit rate : 384000
Bit rate : 384 Kbps
Channel(s) : 6
Channel(s) : 6 channels
Channel positions : Front: L C R, Side: L R, LFE
Channel positions : 3/2/0.1
Sampling rate : 48000
Sampling rate : 48.0 KHz
Samples count : 124743168
Resolution : 16
Resolution : 16 bits
Bit depth : 16
Bit depth : 16 bits
Compression mode : Lossy
Compression mode : Lossy
Delay : 0
Delay : 00:00:00.000
Delay, origin : Container
Delay, origin : Container
Delay relative to video : 0
Video0 delay : 0
Stream size : 124743168
Stream size : 119 MiB (8%)
Stream size : 119 MiB
Stream size : 119 MiB
Stream size : 119 MiB
Stream size : 119.0 MiB
Stream size : 119 MiB (8%)
Proportion of this stream : 0.08319
Language : ru
Language : Russian
Language : Russian
Language : ru
Language : rus
Language : ru
Default : Yes
Default : Yes
Forced : No
Forced : No
dialnorm : -27
dialnorm/String : -27 dB
compr : -0.28
compr/String : -0.28 dB
bsid : 8
dialnorm_Average : -27
dialnorm_Average/String : -27 dB
dialnorm_Minimum : -27
dialnorm_Minimum/String : -27 dB
dialnorm_Maximum : -27
dialnorm_Maximum/String : -27 dB
dialnorm_Count : 2
compr_Average : -0.28
compr_Average/String : -0.28 dB
compr_Minimum : -0.28
compr_Minimum/String : -0.28 dB
compr_Maximum : -0.28
compr_Maximum/String : -0.28 dB
compr_Count : 2
Audio #2
Count : 237
Count of stream of this kind : 2
Kind of stream : Audio
Kind of stream : Audio
Stream identifier : 1
Stream identifier : 2
StreamOrder : 2
Inform : English, 384 Kbps, 48.0 KHz, 16 bits, 6 channels, AC-3
ID : 3
ID : 3
Unique ID : 863270541321700993
Format : AC-3
Format/Info : Audio Coding 3
Commercial name : AC-3
Mode extension : CM (complete main)
Format settings, Endianness : Big
Codec ID : A_AC3
Codec : AC3
Codec : AC3
Codec/Family : AC3
Codec/Info : Dolby AC3
Duration : 2598816
Duration : 43mn 18s
Duration : 43mn 18s 816ms
Duration : 43mn 18s
Duration : 00:43:18.816
Bit rate mode : CBR
Bit rate mode : Constant
Bit rate : 384000
Bit rate : 384 Kbps
Channel(s) : 6
Channel(s) : 6 channels
Channel positions : Front: L C R, Side: L R, LFE
Channel positions : 3/2/0.1
Sampling rate : 48000
Sampling rate : 48.0 KHz
Samples count : 124743168
Resolution : 16
Resolution : 16 bits
Bit depth : 16
Bit depth : 16 bits
Compression mode : Lossy
Compression mode : Lossy
Delay : 0
Delay : 00:00:00.000
Delay, origin : Container
Delay, origin : Container
Delay relative to video : 0
Video0 delay : 0
Stream size : 124743168
Stream size : 119 MiB (8%)
Stream size : 119 MiB
Stream size : 119 MiB
Stream size : 119 MiB
Stream size : 119.0 MiB
Stream size : 119 MiB (8%)
Proportion of this stream : 0.08319
Language : en
Language : English
Language : English
Language : en
Language : eng
Language : en
Default : No
Default : No
Forced : No
Forced : No
dialnorm : -27
dialnorm/String : -27 dB
compr : -0.28
compr/String : -0.28 dB
bsid : 8
dialnorm_Average : -27
dialnorm_Average/String : -27 dB
dialnorm_Minimum : -27
dialnorm_Minimum/String : -27 dB
dialnorm_Maximum : -27
dialnorm_Maximum/String : -27 dB
dialnorm_Count : 2
compr_Average : -0.28
compr_Average/String : -0.28 dB
compr_Minimum : -0.28
compr_Minimum/String : -0.28 dB
compr_Maximum : -0.28
compr_Maximum/String : -0.28 dB
compr_Count : 2

Серии

01. Step Nine — Девятая ступень

Внимание! Раздача ведётся путём добавления новых серий

Внимание! Раздача ведётся путём добавления новых серий; при каждом добавлении создаётся новый торрент.
Чтобы начать докачку новой серии, пользователям необходимо сделать следующее:
1. Остановить скачивание;
2. Удалить старый торрент у себя из клиента (старые серии удалять не надо);
3. Скачать новый торрент и запустить его у себя в клиенте вместо старого, при этом указать клиенту путь в старую папку куда и должно происходить скачивание новых серий. Ваш клиент при этом должен произвести хеширование (проверку) старой папки и будет докачивать только те серии, которых у вас ещё нет. Старые серии при этом не удаляются, а продолжают раздаваться! Eсли вы уже удалили старые серии, то предотвратить повторную закачку старых серий можно, отжав галочку в соответствующих местах при запуске нового торрента.
Скриншоты:
               
Вне форума [Профиль] [ЛС]
Показать сообщения:    
Ответить на тему

Текущее время: Сегодня 10:08

Часовой пояс: GMT + 3



Вы не можете начинать темы
Вы не можете отвечать на сообщения
Вы не можете редактировать свои сообщения
Вы не можете удалять свои сообщения
Вы не можете голосовать в опросах
Вы не можете прикреплять файлы к сообщениям
Вы не можете скачивать файлы