Сегодня идет свободное скачивание без начисления Download

Революция / Revolution (2013) WEB-DLRip [сезон 2, серии 1 из ?] [LostFilm] (Обновляемая)

Ответить на тему
 
Автор
Сообщение

UndegraundMen ®

Стаж: 5 лет 8 месяцев

Сообщений: 25860

Торрент-статистика

Пост 28-Сен-2013 11:33

[Цитировать]

Революция / Revolution (2013) WEB-DLRip [сезон 2, серии 1 из ?] [LostFilm](Обновляемая)- Год выпуска: 2013
Перевод: Многоголосый закадровый, профессиональный (LostFilm)
Релиз группа:

Режиссер: Стив Бойум, Джон Фавро
Актеры: Билли Бёрк, Шэйн Каллахан, Кен Арнольд, Джанкарло Эспозито, Тим Гини, Уильям Хатчингс, Элизабет Митчелл, Даниелла Алонсо, Мария Хауэлл, Зак Орт, Дж.Д. Пардо, Майкл Дьюсенберг, Майк Холмс, Трэйси Спиридакос и др.
Описание фильма:
Вся наша жизнь зависит от электричества. Что же произойдет, если оно внезапно исчезнет? Однажды, словно по щелчку выключателя, весь мир был отброшен в темные века. Самолеты падали с небес, больницы лишались энергообеспечения, связь стала невозможной. Теперь, без всех современных технологий, кто же ответит, почему? Через 15 лет после бедствия, жизнь стала такой, какой она была до промышленной революции: семьи живут на глухих улочках, с заходом солнца зажигают фонари и свечи. Жизнь стала спокойнее и лучше. Но так ли это? За пределами небольших фермерских общин все еще таится опасность. Так жизнь молодой девушки резко меняется, когда местная милиция убивает ее отца, который каким-то неведомым для дочери образом имел связь с отключением. Это событие заставляет ее вместе с двумя спутниками отправиться в смелое путешествие, чтобы найти правду о прошлом в надежде изменить будущее.
Сэмпл:
Качество видео: WEB-DLRip
Продолжительность: ~00:43:00 серия
Видеокодек: Xvid
Битрейт видео: ~1 255 Kbps
Размер кадра: 720x400
Аудио Rus: 48 kHz, MPEG Layer 3, 2 ch, 192 Kbps

MI

General
Полное имя : D:\Новые фильмы\Революция s2\Revolution.S02E01.rus.LostFilm.TV.avi
Формат : AVI
Формат/Информация : Audio Video Interleave
Размер файла : 449 MiB
Продолжительность : 43mn 7s
Режим общего битрейта : Variable
Общий поток : 1 455 Kbps
Программа кодирования : Nandub v1.0rc2
Библиотека кодирования : Nandub build 1853/release
Video
Идентификатор : 0
Формат : MPEG-4 Visual
Профиль формата : Simple@L3
Параметр BVOP формата : No
Параметр QPel формата : No
Параметр GMC формата : No warppoints
Параметр матрицы формата : Default (H.263)
Идентификатор кодека : XVID
Идентификатор кодека/Подсказка : XviD
Продолжительность : 43mn 7s
Битрейт : 1 255 Kbps
Ширина : 720 pixels
Высота : 400 pixels
Соотношение сторон : 16:9
Частота кадров : 23.976 fps
Цветовое пространство : YUV
Субдискретизация насыщенности : 4:2:0
Битовая глубина : 8 bits
Тип развёртки : Progressive
Метод сжатия : Lossy
Бит/(Пиксели*Кадры) : 0.182
Размер потока : 387 MiB (86%)
Библиотека кодирования : XviD 1.2.1 (UTC 2008-12-04)
Audio
Идентификатор : 1
Формат : MPEG Audio
Версия формата : Version 1
Профиль формата : Layer 3
Режим : Joint stereo
Расширение режима : MS Stereo
Идентификатор кодека : 55
Идентификатор кодека/Подсказка : MP3
Продолжительность : 43mn 7s
Вид битрейта : Variable
Битрейт : 192 Kbps
Каналы : 2 channels
Частота : 48.0 KHz
Метод сжатия : Lossy
Размер потока : 57.7 MiB (13%)
Выравнивание : Aligned on interleaves
Продолжительность промежутка : 24 ms (0.58 video frame)
Время предзагрузки промежутка : 493 ms
Библиотека кодирования : LAME3.97b
Настройки программы : -m j -V 4 -q 3 -lowpass 18.6 --abr 192

Внимание! Раздача ведётся путём добавления новых серий

Внимание! Раздача ведётся путём добавления новых серий; при каждом добавлении создаётся новый торрент.
Чтобы начать докачку новой серии, пользователям необходимо сделать следующее:
1. Остановить скачивание;
2. Удалить старый торрент у себя из клиента (старые серии удалять не надо);
3. Скачать новый торрент и запустить его у себя в клиенте вместо старого, при этом указать клиенту путь в старую папку куда и должно происходить скачивание новых серий. Ваш клиент при этом должен произвести хеширование (проверку) старой папки и будет докачивать только те серии, которых у вас ещё нет. Старые серии при этом не удаляются, а продолжают раздаваться! Eсли вы уже удалили старые серии, то предотвратить повторную закачку старых серий можно, отжав галочку в соответствующих местах при запуске нового торрента.
Скриншоты:
       
Время раздачи: 24/7
Вне форума [Профиль] [ЛС]
Похожие темы
Форум Тема Автор Торрент Отв. Посл. сообщение
./templates/default/images/folder_dl.gif Обучающее видео Роман Ерин | Гитарная революция. Полный пакет (2015) CamRip [H.264/720p] Omen
1 | 0

0 | 1194

31

2015-10-11 23:55
Omen Последнее
./templates/default/images/folder_dl.gif Медицина и Здоровье Майкл Мосли | Твой кишечник не дурак. Революция тела изнутри (2018) [FB2] }{@R0N
1 | 0

0 | 21

1

Вчера 22:50
}{@R0N Последнее
Показать сообщения:    
Ответить на тему

Текущее время: Сегодня 19:54

Часовой пояс: GMT + 3



Вы не можете начинать темы
Вы не можете отвечать на сообщения
Вы не можете редактировать свои сообщения
Вы не можете удалять свои сообщения
Вы не можете голосовать в опросах
Вы не можете прикреплять файлы к сообщениям
Вы не можете скачивать файлы