Сегодня идет свободное скачивание без начисления Download

Агенты «Щ.И.Т.» / Agents of S.H.I.E.L.D. (Сезон 1, серия 1) (2013) WEB-DLRip (Обновляемая) [Good People]

Ответить на тему
 
Автор
Сообщение

UndegraundMen ®

Стаж: 5 лет 8 месяцев

Сообщений: 25860

Торрент-статистика

Пост 26-Сен-2013 23:04

[Цитировать]

Агенты «Щ.И.Т.» / Agents of S.H.I.E.L.D. (2013) WEB-DLRip - Русское название: Агенты «Щ.И.Т.»
Оригинальное название: Agents of S.H.I.E.L.D.
Год выпуска: 2013
Жанр: Боевик, фантастика
Выпущено: США, ABC Studios, Marvel Television
Описание:
Действия сериала разворачиваются после событий в фильме "Мстители". Агент Фил Колсон возвращается в правоохранительную организацию под названием Щ.И.Т. Собрав небольшую команду профессионалов, он начинает работу над новыми делами, которые порой бывают очень странными. В команде Щ.И.Т.а мы увидим довольно-таки прямолинейного агента - Гранта, который является экспертом по шпионаже и боевым действиям; так же числе специалист по восточным единоборствам и пилот - агент Мелинда Мэй; гениальные ученые-социофобы Джемма Симмонс и Лео Фитц; недавно рекрутированный хакер - Скай. Сериал снятый по комиксам от Marvel's "Агенты Щ.И.Т.а" это настоящее эпическое приключение, демонстрирующее чудо человеческого духа и надежду на лучшее. Вы погрузитесь в мир супергероев, в мир неизведанного, в мир пришельцев, зрелищ и невероятных историй. Телесериал "Агенты Щ.И.Т.а" показывает нам не людей со сверхспособностями, а людей с огромной силой воли и невероятной храбростью, ведь несмотря на отсутствие каких-либо необычайных способностей, эти агенты рвутся в бой и спасают весь мир от злодеев и гибели. Ведь каждый из агентов по отдельности это сила и ум, ну а вместе они способны спасти всю планету.
Режиссер: Джосс Уидон
Актеры: Кларк Грегг, Минг-На, Бретт Далтон, Коби Смолдерс, Хлоя Ванг, Йен де Кестекер, Элизабет Хенстридж, Дж. Аугуст Ричардс, Шеннон Лучио, Арлин Серда
Перевод: Профессиональный многоголосый (Jaskier-Good People)
Язык субтитров: Отсутствуют
Продолжительность: Каждая серия х ~ 00:45:00
Видеокодек: XVID
Битрейт видео: ~1500 kb/s
Размер кадра: 720 x 400
Качество видео: WEB-DLRip
Аудио (русский): AC-3, 2ch., 192 kb/s

MediaInfo

Формат : AVI
Формат/Информация : Audio Video Interleave
Размер файла : 550 Мбайт
Продолжительность : 44 м.
Общий поток : 1744 Кбит/сек
Программа кодирования : VirtualDubMod 1.5.10.2 (build 2540/release)
Библиотека кодирования : VirtualDubMod build 2540/release
Видео
Идентификатор : 0
Формат : MPEG-4 Visual
Профиль формата : Advanced Simple@L5
Параметр BVOP формата : 2
Параметр QPel формата : Нет
Параметр GMC формата : Без точки перехода
Параметр матрицы формата : Выборочная
Идентификатор кодека : XVID
Идентификатор кодека/Подсказка : XviD
Продолжительность : 44 м.
Битрейт : 1543 Кбит/сек
Ширина : 720 пикселей
Высота : 400 пикселей
Соотношение сторон : 16:9
Частота кадров : 23,976 кадра/сек
Цветовое пространство : YUV
Субдискретизация насыщенности : 4:2:0
Битовая глубина : 8 бит
Тип развёртки : Прогрессивная
Метод сжатия : С потерями
Бит/(Пиксели*Кадры) : 0.223
Размер потока : 486 Мбайт (88%)
Библиотека кодирования : XviD 1.2.1 (UTC 2008-12-04)
Аудио
Идентификатор : 1
Формат : AC-3
Формат/Информация : Audio Coding 3
Расширение режима : CM (complete main)
Идентификатор кодека : 2000
Продолжительность : 44 м.
Вид битрейта : Постоянный
Битрейт : 192 Кбит/сек
Каналы : 2 канала
Расположение каналов : Front: L R
Частота : 48,0 КГц
Битовая глубина : 16 бит
Метод сжатия : С потерями
Размер потока : 60,5 Мбайт (11%)
Выравнивание : Разделение по промежуткам
Продолжительность промежутка : 42 мс. (1,00 видеокадр)
Время предзагрузки промежутка : 500 мс.

Список серий

01. Пилот / Pilot

Внимание! Раздача ведётся путём добавления новых серий

Внимание! Раздача ведётся путём добавления новых серий; при каждом добавлении создаётся новый торрент.
Чтобы начать докачку новой серии, пользователям необходимо сделать следующее:
1. Остановить скачивание;
2. Удалить старый торрент у себя из клиента (старые серии удалять не надо);
3. Скачать новый торрент и запустить его у себя в клиенте вместо старого, при этом указать клиенту путь в старую папку куда и должно происходить скачивание новых серий. Ваш клиент при этом должен произвести хеширование (проверку) старой папки и будет докачивать только те серии, которых у вас ещё нет. Старые серии при этом не удаляются, а продолжают раздаваться! Eсли вы уже удалили старые серии, то предотвратить повторную закачку старых серий можно, отжав галочку в соответствующих местах при запуске нового торрента.
Скриншоты:                    
Вне форума [Профиль] [ЛС]
Показать сообщения:    
Ответить на тему

Текущее время: Сегодня 14:16

Часовой пояс: GMT + 3



Вы не можете начинать темы
Вы не можете отвечать на сообщения
Вы не можете редактировать свои сообщения
Вы не можете удалять свои сообщения
Вы не можете голосовать в опросах
Вы не можете прикреплять файлы к сообщениям
Вы не можете скачивать файлы