Сегодня идет свободное скачивание без начисления Download

Монк / Дефективный детектив / Monk [сезон 1-8 (полные)] (2002-2009) WEB-DL 720p [RU, EN]

Ответить на тему
 
Автор
Сообщение

UndegraundMen ®

Стаж: 5 лет 7 месяцев

Сообщений: 25860

Торрент-статистика

Пост 25-Сен-2013 23:51

[Цитировать]

Монк / Дефективный детектив / Monk
[сезон 1-8 (полные)]
- Год выпуска: 2002-2009
Страна: сша
Жанр: Детектив, Криминал, Комедия, Драма
Продолжительность: 124 x 40-45 мин
Перевод: Сезоны 1-5 - профессиональный (многоголосый закадровый) Первый канал, сезоны 6-8 - профессиональный (двухголосый закадровый) Universal Россия
Субтитры: Русские, на непереведенные места в 1 и 7 сериях, первого сезона.

Режиссер: Джерри Левайн, Майкл Цинберг и др
Актеры: Тони Шелуб, Битти Шрэм, Трэйлор Ховард, Тэд Левайн, Джейсон Грей Стэнфорд, и др
Описание:
Казалось, ничто не в силах помешать стремительному восхождению к вершинам карьеры детектива Эдриана Монка. Но нераскрытое убийство любимой жены — Труди — явилось слишком сильным ударом для суперпрофессионала. Пережитая драма повлекла за собой серьезные психологические расстройства, абсолютно несовместимые с работой в полиции. И службу пришлось оставить.
Рядом с Монком теперь постоянно находится медсестра Шарона, которая пытается помочь ему восстановить утраченные душевные и физические силы. И постепенно Шарона становится для Монка кем-то вроде доктора Ватсона при Шерлоке Холмсе. А тем временем полицейский департамент бьется над раскрытием очередного запутанного дела и, в конце концов, осознает необходимость подключения Монка в качестве частного консультанта к расследованию.
Качество: WEB-DL 720p
Формат: MKV
Видео кодек: H.264
Аудио кодек: AC3
Видео: 1280x720 (16:9), AVC, ~4 Mbps, 23.976 fps, ~0.180 bpx
Аудио (ru): AC3, 2 ch, 192 kbps, 48 kHz
Аудио (en): 1-3, 5 сезоны: AAC, 2 ch, 160 kbps, 48 KHz; 4, 6-8 сезоны: AC3, 6 ch, 384 kbps, 48 KHz
Сэмпл - озвучка первого канала ... Сэмпл - озвучка Universal Россия ... Все релизы--        
       -

MediaInfo

season 1 episode 11

General
Unique ID : 231501782351289031192244079765256534824 (0xAE299F195FE8F3C5877FD64AB259FB28)
Complete name : D:\Видео\Дефективный детектив ( Monk )\Monk.Season 1.Web-DL.720p\Monk.S01E11.Mr.Monk.and.the.Red-Headed.Stranger.720p.WEB-DL.H264.Rus.Eng.mkv
Format : Matroska
Format version : Version 2
File size : 1.40 GiB
Duration : 44mn 4s
Overall bit rate : 4 563 Kbps
Movie name : Monk - S01E11 - Mr. Monk and the Red-Headed Stranger
Encoded date : UTC 2010-01-13 05:21:09
Writing application : mkvmerge v2.9.5 ('Tu es le seul') built on Jun 7 2009 11:07:07
Writing library : libebml v0.7.7 + libmatroska v0.8.1
Video
ID : 1
Format : AVC
Format/Info : Advanced Video Codec
Format profile : [url=mailto:High@L3.1]High@L3.1[/url]
Format settings, CABAC : No
Format settings, ReFrames : 2 frames
Codec ID : V_MPEG4/ISO/AVC
Duration : 44mn 4s
Width : 1 280 pixels
Height : 720 pixels
Display aspect ratio : 16:9
Frame rate mode : Constant
Frame rate : 23.976 fps
Color space : YUV
Chroma subsampling : 4:2:0
Bit depth : 8 bits
Scan type : Progressive
Language : English
Default : Yes
Forced : No
Color primaries : BT.709
Transfer characteristics : BT.709
Matrix coefficients : BT.709
Audio #1
ID : 2
Format : AAC
Format/Info : Advanced Audio Codec
Format profile : LC
Codec ID : A_AAC
Duration : 44mn 4s
Channel(s) : 2 channels
Channel positions : Front: L R
Sampling rate : 48.0 KHz
Compression mode : Lossy
Language : English
Default : No
Forced : No
Audio #2
ID : 3
Format : AC-3
Format/Info : Audio Coding 3
Format profile : Dolby Digital
Mode extension : CM (complete main)
Format settings, Endianness : Big
Codec ID : A_AC3
Duration : 44mn 4s
Bit rate mode : Constant
Bit rate : 192 Kbps
Channel(s) : 2 channels
Channel positions : Front: L R
Sampling rate : 48.0 KHz
Bit depth : 16 bits
Compression mode : Lossy
Stream size : 60.5 MiB (4%)
Language : Russian
Default : Yes
Forced : No

season 3 episode 8

General
Unique ID : 237462178828672511550693640533730275184 (0xB2A58D558B6DED89847561D671062F70)
Complete name : D:\Видео\Дефективный детектив ( Monk )\Monk.Season 3.Web-dl.720p\Monk 3x08 Web-dl.720p.Rus.Eng.mkv
Format : Matroska
Format version : Version 2
File size : 1.35 GiB
Duration : 43mn 18s
Overall bit rate : 4 457 Kbps
Encoded date : UTC 2011-04-15 05:05:30
Writing application : mkvmerge v4.5.0 ('Speed of Light') сборка от Feb 1 2011 02:10:32
Writing library : libebml v1.2.0 + libmatroska v1.1.0
Video
ID : 3
Format : AVC
Format/Info : Advanced Video Codec
Format profile : [url=mailto:High@L3.1]High@L3.1[/url]
Format settings, CABAC : No
Format settings, ReFrames : 2 frames
Muxing mode : Header stripping
Codec ID : V_MPEG4/ISO/AVC
Duration : 43mn 18s
Width : 1 280 pixels
Height : 720 pixels
Display aspect ratio : 16:9
Frame rate mode : Constant
Frame rate : 23.976 fps
Color space : YUV
Chroma subsampling : 4:2:0
Bit depth : 8 bits
Scan type : Progressive
Language : English
Default : No
Forced : No
Color primaries : BT.709
Transfer characteristics : BT.709
Matrix coefficients : BT.709
Audio #1
ID : 1
Format : AC-3
Format/Info : Audio Coding 3
Format profile : Dolby Digital
Mode extension : CM (complete main)
Format settings, Endianness : Big
Muxing mode : Header stripping
Codec ID : A_AC3
Duration : 43mn 18s
Bit rate mode : Constant
Bit rate : 192 Kbps
Channel(s) : 2 channels
Channel positions : Front: L R
Sampling rate : 48.0 KHz
Bit depth : 16 bits
Compression mode : Lossy
Stream size : 59.5 MiB (4%)
Language : Russian
Default : Yes
Forced : No
Audio #2
ID : 2
Format : AAC
Format/Info : Advanced Audio Codec
Format profile : LC
Codec ID : A_AAC
Duration : 43mn 18s
Channel(s) : 2 channels
Channel positions : Front: L R
Sampling rate : 48.0 KHz
Compression mode : Lossy
Language : English
Default : No
Forced : No

season 8 episode 1

General
Unique ID : 196588118419875670742339510398356097784 (0x93E57E90D69FE67BBDDD6892E9290AF8)
Complete name : D:\Видео\Дефективный детектив ( Monk )\Monk.Season 8.Web-dl.720p\Monk S08E01 720p WEB-DL.Rus.Eng.mkv
Format : Matroska
Format version : Version 2
File size : 1.40 GiB
Duration : 42mn 52s
Overall bit rate : 4 677 Kbps
Encoded date : UTC 2011-01-11 20:41:01
Writing application : mkvmerge v3.2.0 ('Beginnings') built on Feb 12 2010 16:46:17
Writing library : libebml v0.7.9 + libmatroska v0.8.1
Video
ID : 1
Format : AVC
Format/Info : Advanced Video Codec
Format profile : [url=mailto:High@L3.1]High@L3.1[/url]
Format settings, CABAC : No
Format settings, ReFrames : 2 frames
Codec ID : V_MPEG4/ISO/AVC
Duration : 42mn 52s
Bit rate : 4 008 Kbps
Width : 1 280 pixels
Height : 720 pixels
Display aspect ratio : 16:9
Frame rate mode : Constant
Frame rate : 23.976 fps
Color space : YUV
Chroma subsampling : 4:2:0
Bit depth : 8 bits
Scan type : Progressive
Bits/(Pixel*Frame) : 0.181
Stream size : 1.20 GiB (86%)
Title : Monk - Season 8, Episode 1: Mr. Monk's Favorite Show
Language : English
Default : Yes
Forced : No
Color primaries : BT.709
Transfer characteristics : BT.709
Matrix coefficients : BT.709
Audio #1
ID : 3
Format : AC-3
Format/Info : Audio Coding 3
Format profile : Dolby Digital
Mode extension : CM (complete main)
Format settings, Endianness : Big
Codec ID : A_AC3
Duration : 42mn 52s
Bit rate mode : Constant
Bit rate : 192 Kbps
Channel(s) : 2 channels
Channel positions : Front: L R
Sampling rate : 48.0 KHz
Bit depth : 16 bits
Compression mode : Lossy
Stream size : 58.9 MiB (4%)
Language : Russian
Default : Yes
Forced : No
Audio #2
ID : 2
Format : AC-3
Format/Info : Audio Coding 3
Mode extension : CM (complete main)
Format settings, Endianness : Big
Codec ID : A_AC3
Duration : 42mn 52s
Bit rate mode : Constant
Bit rate : 384 Kbps
Channel(s) : 6 channels
Channel positions : Front: L C R, Side: L R, LFE
Sampling rate : 48.0 KHz
Bit depth : 16 bits
Compression mode : Lossy
Stream size : 118 MiB (8%)
Title : Dolby Digital 5.1 @ 384 kbps
Language : English
Default : No
Forced : No
Вне форума [Профиль] [ЛС]
Показать сообщения:    
Ответить на тему

Текущее время: Сегодня 22:25

Часовой пояс: GMT + 3



Вы не можете начинать темы
Вы не можете отвечать на сообщения
Вы не можете редактировать свои сообщения
Вы не можете удалять свои сообщения
Вы не можете голосовать в опросах
Вы не можете прикреплять файлы к сообщениям
Вы не можете скачивать файлы