Сегодня идет свободное скачивание без начисления Download

Вице / Veep (2012) BDRip [Сезон: 1 / Серии: 1-8 (8)] [NovaFiLM]

Ответить на тему
 
Автор
Сообщение

UndegraundMen ®

Стаж: 5 лет 6 месяцев

Сообщений: 25861

Торрент-статистика

Пост 18-Сен-2013 05:59

[Цитировать]

Вице / Veep (2012) BDRip [Сезон: 1 / Серии: 1-8 (8)] [NovaFiLM]- Русское название: Вице
Оригинальное название: Veep
Год выпуска: 2012
Страна: США
Жанр: комедия
Продолжительность: ~ 00:28:00 серия
Перевод: Одногоголосый, закадровый - NovaFiLM
Субтитры: Нет-Режиссёры: Армандо Ианнуччи, Тристрам Шапиро
В ролях: Джулия Луис-Дрейфус, Рейд Скотт, Ken Bulercroft, Джастин Дошер, Тони Хейл, Чад Тайлер, Доун Дугласс и др.
Описание: Главная героиня сериала – бывший сенатор Селина Майер (Джулия Луис-Дрейфус), которая стала вице-президентом. Как оказалось, новая должность – совсем не такая, какой ее представляла Майер, хотя многие ее предупреждали об этом.-Релиз: NovaFilm
Озвучка: Александр Дасевич
Подготовка видео: ochkarik1

-
Сэмпл: -Качество: BDRip
Формат: AVI
Видео кодек: XviD
Видео: 720x400 (16:9), 23.976 fps, ~1511 kbps, ~0.22 bit/pixel
Аудио Rus: 48 kHz, Dolby Digital 2.0 @ 192 kbps
Аудио Eng: 48 kHz, Dolby Digital 2.0 @ 192 kbps

Название эпизодов:

1. Fundraiser
2. Frozen.Yoghurt
3. Catherine
4. Chung
5. Nicknames
6. Baseball
7. Full.Disclosure
8. Tears

MediaInfo

Полное имя : F:\Сериал\раздача\Veep.S01.BDRip.Novafilm\Veep.S01E01.Fundraiser.BDRip.rus.eng.novafilm.avi
Формат : AVI
Формат/Информация : Audio Video Interleave
Размер файла : 400 Мбайт
Продолжительность : 29 м.
Общий поток : 1909 Кбит/сек
Программа кодирования : VirtualDubMod 1.5.10.2 (build 2540/release)
Библиотека кодирования : VirtualDubMod build 2540/release
Видео
Идентификатор : 0
Формат : MPEG-4 Visual
Профиль формата : Advanced Simple@L5
Параметр BVOP формата : 1
Параметр QPel формата : Нет
Параметр GMC формата : Без точки перехода
Параметр матрицы формата : Выборочная
Идентификатор кодека : XVID
Идентификатор кодека/Подсказка : XviD
Продолжительность : 29 м.
Битрейт : 1511 Кбит/сек
Ширина : 720 пикс.
Высота : 400 пикс.
Соотношение сторон : 16:9
Частота кадров : 23,976 кадр/сек
Цветовое пространство : YUV
Подвыборка цветности : 4:2:0
Битовая глубина : 8 бит
Тип развёртки : Прогрессивная
Метод сжатия : С потерями
Бит/(Пиксели*Кадры) : 0.219
Размер потока : 317 Мбайт (79%)
Библиотека кодирования : XviD 73
Аудио #1
Идентификатор : 1
Формат : AC-3
Формат/Информация : Audio Coding 3
Расширение режима : CM (complete main)
Идентификатор кодека : 2000
Продолжительность : 29 м.
Вид битрейта : Постоянный
Битрейт : 192 Кбит/сек
Каналы : 2 канала
Расположение каналов : Front: L R
Частота : 48,0 КГц
Битовая глубина : 16 бит
Метод сжатия : С потерями
Размер потока : 40,2 Мбайт (10%)
Выравнивание : Разделение по промежуткам
Продолжительность промежутка : 42 мс. (1,00 видеокадр)
Время предзагрузки промежутка : 500 ms
Заголовок : Russian
Аудио #2
Идентификатор : 2
Формат : AC-3
Формат/Информация : Audio Coding 3
Расширение режима : CM (complete main)
Идентификатор кодека : 2000
Продолжительность : 29 м.
Вид битрейта : Постоянный
Битрейт : 192 Кбит/сек
Каналы : 2 канала
Расположение каналов : Front: L R
Частота : 48,0 КГц
Битовая глубина : 16 бит
Метод сжатия : С потерями
Размер потока : 40,2 Мбайт (10%)
Выравнивание : Разделение по промежуткам
Продолжительность промежутка : 42 мс. (1,00 видеокадр)
Время предзагрузки промежутка : 500 ms
Заголовок : English
       
       
Вне форума [Профиль] [ЛС]
Показать сообщения:    
Ответить на тему

Текущее время: Сегодня 10:07

Часовой пояс: GMT + 3



Вы не можете начинать темы
Вы не можете отвечать на сообщения
Вы не можете редактировать свои сообщения
Вы не можете удалять свои сообщения
Вы не можете голосовать в опросах
Вы не можете прикреплять файлы к сообщениям
Вы не можете скачивать файлы