Сегодня идет свободное скачивание без начисления Download

Братья и Сестры / Brothers & Sisters (1-5 сезоны) (2006-2011) DVDRip

Ответить на тему
 
Автор
Сообщение

UndegraundMen ®

Стаж: 5 лет 7 месяцев

Сообщений: 25860

Торрент-статистика

Пост 17-Сен-2013 17:01

[Цитировать]

Братья и Сестры / Brothers & Sisters (1-5 сезоны) (2006-2011) DVDRip- Год выпуска: 2006-2011
Страна: США
Жанр: Драма
Перевод: Многоголосый закадровый, профессиональный (FoxLife)

Режиссер: Кен Олин
Актеры: Дэйв Аннабл, Калиста Флокхарт, Бэлтазар Гетти, Эмили ВанКамп, Рэйчел Гриффитс, Сара Джейн Моррис, Джон Пайпер-Фергюсон
Описание фильма:
Семья Уокер - самая обычная американская семья, живущая в Лос-Анджелесе. Они вечные соперники, но, тем не менее, очень близки. Братья и сестры Уокер пытаются оправдать ожидания своих родителей и соответствовать им. Их отец, Уильям Уокер - президент семейной компании, кажется им примером для подражания. Мать, Нора Холден, решительная и сильная женщина. Старшая дочь, Сара, вице-президент корпорации, вернувшаяся в семейный бизнес и совмещающая семью с карьерой. Томми - любитель женщин и наследник семейного бизнеса. Кевин - адвокат нетрадиционной ориентации. Джастин, младший сын, тяжело переживающий моральную травму после войны. И, наконец, Китти, недавно помолвленная девушка с правыми взглядами, привыкшая быть любимицей своего отца. Все они должны научиться принимать своих, кажущихся им почти святых родителей, как реальных людей со всеми недостатками и контрастами.
Начало первой серии озвучка от Xhot, в остальном вплоть до конца 5 сезона - FoxLife.
Продолжительность: ~00:42:00 серия
Качество видео: DVDRip (1-4 сезон), HDTVRip (5 сезон)
Сэмпл (1-11 серии): Скачать
Сэмпл (12-23 серии): Скачать
Сэмпл (2-5 сезон): Скачать
Видеокодек: Xvid
Битрейт видео: ~1263kbps (1-11 серии), ~1026kbps (12-23 серии), ~993kbps (2-5 сезон)
Размер кадра: 720x416 (1-11 серии), 640x352 (12-23 серии), 624x352 (2-5 сезон)
Аудио 1: MP3 128kbps 2ch (1-5 сезон) [Русский]
Аудио 2: MP3 128kbps 2ch (2-5 сезон) [Английский]
Пожалуйста оставайтесь на раздаче!

MEDIAINFO 1-11 серии

Video
ID : 0
Format : MPEG-4 Visual
Format profile : Advanced Simple@L5
Format settings, BVOP : 1
Format settings, QPel : No
Format settings, GMC : No warppoints
Format settings, Matrix : Default (H.263)
Codec ID : XVID
Codec ID/Hint : XviD
Duration : 39mn 46s
Bit rate : 1 263 Kbps
Width : 720 pixels
Height : 416 pixels
Display aspect ratio : 1.731
Frame rate : 25.000 fps
Color space : YUV
Chroma subsampling : 4:2:0
Bit depth : 8 bits
Scan type : Progressive
Compression mode : Lossy
Bits/(Pixel*Frame) : 0.169
Stream size : 359 MiB (90%)
Writing library : XviD 1.0.3 (UTC 2004-12-20)
Audio
ID : 1
Format : MPEG Audio
Format version : Version 1
Format profile : Layer 3
Mode : Joint stereo
Mode extension : MS Stereo
Codec ID : 55
Codec ID/Hint : MP3
Duration : 39mn 46s
Bit rate mode : Constant
Bit rate : 128 Kbps
Channel(s) : 2 channels
Sampling rate : 48.0 KHz
Compression mode : Lossy
Stream size : 36.4 MiB (9%)
Alignment : Aligned on interleaves
Interleave, duration : 40 ms (1.00 video frame)
Interleave, preload duration : 504 ms

MEDIA INFO 12-23 серии

Video
ID : 0
Format : MPEG-4 Visual
Format profile : Advanced Simple@L5
Format settings, BVOP : 2
Format settings, QPel : No
Format settings, GMC : No warppoints
Format settings, Matrix : Default (H.263)
Codec ID : XVID
Codec ID/Hint : XviD
Duration : 40mn 55s
Bit rate : 1 026 Kbps
Width : 640 pixels
Height : 352 pixels
Display aspect ratio : 16:9
Frame rate : 25.000 fps
Color space : YUV
Chroma subsampling : 4:2:0
Bit depth : 8 bits
Scan type : Progressive
Compression mode : Lossy
Bits/(Pixel*Frame) : 0.182
Stream size : 300 MiB (88%)
Writing library : XviD 1.1.2 (UTC 2006-11-01)
Audio
ID : 1
Format : MPEG Audio
Format version : Version 1
Format profile : Layer 3
Mode : Joint stereo
Mode extension : MS Stereo
Codec ID : 55
Codec ID/Hint : MP3
Duration : 40mn 55s
Bit rate mode : Constant
Bit rate : 128 Kbps
Channel(s) : 2 channels
Sampling rate : 48.0 KHz
Compression mode : Lossy
Stream size : 37.5 MiB (11%)
Alignment : Aligned on interleaves
Interleave, duration : 40 ms (1.00 video frame)
Interleave, preload duration : 504 ms

MEDIA INFO 2-5 сезоны

Video
ID : 0
Format : MPEG-4 Visual
Format profile : Advanced Simple@L5
Format settings, BVOP : 2
Format settings, QPel : No
Format settings, GMC : No warppoints
Format settings, Matrix : Default (H.263)
Muxing mode : Packed bitstream
Codec ID : XVID
Codec ID/Hint : XviD
Duration : 43mn 5s
Bit rate : 993 Kbps
Width : 624 pixels
Height : 352 pixels
Display aspect ratio : 16:9
Frame rate : 23.976 fps
Color space : YUV
Chroma subsampling : 4:2:0
Bit depth : 8 bits
Scan type : Progressive
Compression mode : Lossy
Bits/(Pixel*Frame) : 0.189
Stream size : 306 MiB (78%)
Writing library : XviD 1.1.2 (UTC 2006-11-01)
Audio #1
ID : 1
Format : MPEG Audio
Format version : Version 1
Format profile : Layer 3
Mode : Joint stereo
Mode extension : MS Stereo
Codec ID : 55
Codec ID/Hint : MP3
Duration : 43mn 5s
Bit rate mode : Constant
Bit rate : 128 Kbps
Channel(s) : 2 channels
Sampling rate : 48.0 KHz
Compression mode : Lossy
Stream size : 39.5 MiB (10%)
Alignment : Aligned on interleaves
Interleave, duration : 42 ms (1.00 video frame)
Interleave, preload duration : 504 ms
Audio #2
ID : 2
Format : MPEG Audio
Format version : Version 1
Format profile : Layer 3
Mode : Joint stereo
Mode extension : MS Stereo
Codec ID : 55
Codec ID/Hint : MP3
Duration : 43mn 5s
Bit rate mode : Variable
Bit rate : 128 Kbps
Channel(s) : 2 channels
Sampling rate : 48.0 KHz
Compression mode : Lossy
Stream size : 39.6 MiB (10%)
Alignment : Aligned on interleaves
Interleave, duration : 24 ms (0.58 video frame)
Interleave, preload duration : 499 ms
Скриншоты:
Вне форума [Профиль] [ЛС]
Похожие темы
Форум Тема Автор Торрент Отв. Посл. сообщение
./templates/default/images/folder_dl.gif Фантастика, фэнтези, ужасы, мистика А.Н.и Б.Н. Стругацкие - Миры братьев Стругацких [1996-2009, DjVu, RUS] Omen
1 | 0

0 | 388

1

2015-11-01 03:00
Omen Последнее
Показать сообщения:    
Ответить на тему

Текущее время: Сегодня 23:26

Часовой пояс: GMT + 3



Вы не можете начинать темы
Вы не можете отвечать на сообщения
Вы не можете редактировать свои сообщения
Вы не можете удалять свои сообщения
Вы не можете голосовать в опросах
Вы не можете прикреплять файлы к сообщениям
Вы не можете скачивать файлы