Сегодня идет свободное скачивание без начисления Download

Пересекая черту (Пересекающиеся линии) / Crossing Lines (Сезон: 1 / Серии: 1-2 из 10) (2013) WEB-DLRip (Sony Turbo) (обновляемая)

Ответить на тему
 
Автор
Сообщение

UndegraundMen ®

Стаж: 5 лет 8 месяцев

Сообщений: 25860

Торрент-статистика

Пост 17-Сен-2013 17:01

[Цитировать]

Пересекая черту (Пересекающиеся линии) / Crossing Lines (Сезон: 1 / Серии: 1-2 из 10) (2013) WEB-DLRip (Sony Turbo) (обновляемая)- Год выпуска: 2013
Страна: Франция, Германия, США Bernero Productions, Sony Pictures Television International, Stillking Films, Tandem Communications, TF1 Production
Жанр: боевик, драма, криминал
Продолжительность: 00:47:00
Перевод: Профессиональный (многоголосый закадровый) Sony Turbo
Русские субтитры: нет-Режиссёр: Дэниэл Персивал, Эрик Валетт, Энди Уилсон
В ролях: Уильям Фихтнер (Побег, Американский папаша, Черный ястреб, Контакт и др.), Дональд Сазерленд (Столпы Земли, Гордость и предубеждение, Обратная тяга и др.), Марк Лавуан, Ричард Флуд, Габриэлла Пессион, Том Влашиха (Игра престолов, Пуаро и др.), Мун Дайлли, Эльза Молльен, Клаудия Васекова, Женевьев О’Рейли
Описание:
С формированием Европейского Союза для упрощения торговли и путешествий были открыты границы. Однако это имело и другое последствие: взрыв международной преступности. При таких условиях преступники могут сбегать в любую страну и спрятаться в любом городе. В мире, где самые опасные персоны могут пересекать столько границ, элитное спецподразделение, каждый член которого избирался исходя из его особенных навыков, должно провести под этим черту.-
Сэмпл: -Качество: WEB-DLRip
Видео: MPEG4, XviD, 720x400 (16:9), 25.000 fps, 1 553 Kbps (0.216 bit/pixel)
Аудио: AC-3, 48.0 KHz, 2 ch, 192 Kbps, CBR-TV-SHOWS
Озвучка: канал Sony Turbo
-Скриншоты:
       
       

Наименование серий:

1-2. Пилот / Pilot
3. Терминатор / The Terminator

MediaInfo:

Полное имя : F:\Сериал\раздача\Crossing.Lines.S01.WEB-DLRip.SonyTurbo\Crossing.Lines.S01E01.SonyTurbo.avi
Формат : AVI
Формат/Информация : Audio Video Interleave
Размер файла : 595 Мбайт
Продолжительность : 47 м.
Общий поток : 1754 Кбит/сек
Программа кодирования : VirtualDubMod 1.5.10.2 (build 2540/release)
Библиотека кодирования : VirtualDubMod build 2540/release
Видео
Идентификатор : 0
Формат : MPEG-4 Visual
Профиль формата : Advanced Simple@L5
Параметр BVOP формата : 2
Параметр QPel формата : Нет
Параметр GMC формата : Без точки перехода
Параметр матрицы формата : Default (MPEG)
Идентификатор кодека : XVID
Идентификатор кодека/Подсказка : XviD
Продолжительность : 47 м.
Битрейт : 1553 Кбит/сек
Ширина : 720 пикс.
Высота : 400 пикс.
Соотношение сторон : 16:9
Частота кадров : 25,000 кадр/сек
Цветовое пространство : YUV
Подвыборка цветности : 4:2:0
Битовая глубина : 8 бит
Тип развёртки : Прогрессивная
Метод сжатия : С потерями
Бит/(Пиксели*Кадры) : 0.216
Размер потока : 527 Мбайт (89%)
Библиотека кодирования : XviD 1.2.1 (UTC 2008-12-04)
Аудио
Идентификатор : 1
Формат : AC-3
Формат/Информация : Audio Coding 3
Расширение режима : CM (complete main)
Идентификатор кодека : 2000
Продолжительность : 47 м.
Вид битрейта : Постоянный
Битрейт : 192 Кбит/сек
Каналы : 2 канала
Расположение каналов : Front: L R
Частота : 48,0 КГц
Битовая глубина : 16 бит
Метод сжатия : С потерями
Задержка видео : 7 мс.
Размер потока : 65,1 Мбайт (11%)
Выравнивание : Разделение по промежуткам
Продолжительность промежутка : 40 мс. (1,00 видеокадр)
Время предзагрузки промежутка : 500 ms

Внимание! Раздача ведётся путём добавления новых серий

Внимание! Раздача ведётся путём добавления новых серий; при каждом добавлении создаётся новый торрент.
Чтобы начать докачку новой серии, пользователям необходимо сделать следующее:
1. Остановить скачивание;
2. Удалить старый торрент у себя из клиента (старые серии удалять не надо);
3. Скачать новый торрент и запустить его у себя в клиенте вместо старого, при этом указать клиенту путь в старую папку куда и должно происходить скачивание новых серий. Ваш клиент при этом должен произвести хеширование (проверку) старой папки и будет докачивать только те серии, которых у вас ещё нет. Старые серии при этом не удаляются, а продолжают раздаваться! Eсли вы уже удалили старые серии, то предотвратить повторную закачку старых серий можно, отжав галочку в соответствующих местах при запуске нового торрента.
Время раздачи: с 9.00 до 23.00, до первых пяти скачавших
Вне форума [Профиль] [ЛС]
Показать сообщения:    
Ответить на тему

Текущее время: Сегодня 20:29

Часовой пояс: GMT + 3



Вы не можете начинать темы
Вы не можете отвечать на сообщения
Вы не можете редактировать свои сообщения
Вы не можете удалять свои сообщения
Вы не можете голосовать в опросах
Вы не можете прикреплять файлы к сообщениям
Вы не можете скачивать файлы