Сегодня идет свободное скачивание без начисления Download

С чистого холста / Инспектор Клот / A Touch of Cloth (2012) HDTVRip (Сезон 1 Серии 1-2 из 2)

Ответить на тему
 
Автор
Сообщение

UndegraundMen ®

Стаж: 5 лет 6 месяцев

Сообщений: 25860

Торрент-статистика

Пост 16-Сен-2013 11:00

[Цитировать]

С чистого холста / Инспектор Клот / A Touch of Cloth (2012) HDTVRip (Сезон 1 Серии 1-2 из 2) - Год выпуска: 2012
Страна: Великобритания
Жанр: боевик, комедия
Перевод: Многоголосый закадровый, профессиональный - AlexFilm

Автор перевода: Александр Митраков (Opel)
Озвучка: Евгения Тихонова, Татьяна Манетина, Михаил Суслов, Владимир Курдов, Александр Дасевич
Монтаж и сведение звука: Александр Юхно

Режиссер: Джим О’Хенлон
Актеры: Джон Ханна, Сюранн Джонс, Джулиан Райнд-Татт, Навин Чоудхри, Адриан Бауэр, Дэйзи Бомонт, Ракель Кэссиди, Тео Барклем-Биггз, Брайан Кокс, Тодд Кэрти, Кейт Флитвуд и др.
Описание фильма:
Мини-сериал, пародирующий шаблоны криминально-детективных сериалов.
Продолжительность: ~00:44:00 серия
Качество видео: HDTVRip
Видеокодек: Xvid
Формат: AVI
Битрейт видео: ~1440 kb/s
Размер кадра: 720х400 (16:9)
Аудио Rus: (48,0 kHz, MPEG Layer 3, 2 ch, 128 kb/s) - многоголосый закадровый
Аудио Eng: (48,0 kHz, MPEG Layer 3, 2 ch, 128 kb/s) - оригинал

MediaInfo

Общее
Полное имя : D:\С чистого холста (Сезон 1) A Touch of Cloth (2012) HDTVRip - AlexFilm\A.Touch.of.Cloth.s01e01.HDTVRip.Rus.Eng.AlexFilm.avi
Формат : AVI
Формат/Информация : Audio Video Interleave
Размер файла : 550 Мбайт
Продолжительность : 44 м.
Общий поток : 1710 Кбит/сек
Название фильма : A Touch of Cloth 1x01 @ AlexFilm
Программа кодирования : VirtualDubMod 1.5.10.2 (build 2542/release)
Видео
Идентификатор : 0
Формат : MPEG-4 Visual
Профиль формата : Advanced Simple@L5
Параметр BVOP формата : 1
Параметр QPel формата : Нет
Параметр GMC формата : Без точки перехода
Параметр матрицы формата : Default (MPEG)
Идентификатор кодека : XVID
Идентификатор кодека/Подсказка : XviD
Продолжительность : 44 м.
Битрейт : 1440 Кбит/сек
Ширина : 720 пикселей
Высота : 400 пикселей
Соотношение сторон : 16:9
Частота кадров : 25,000 кадров/сек
Цветовое пространство : YUV
Субдискретизация насыщенности : 4:2:0
Битовая глубина : 8 бит
Тип развёртки : Прогрессивная
Метод сжатия : С потерями
Бит/(Пиксели*Кадры) : 0.200
Размер потока : 463 Мбайт (84%)
Библиотека кодирования : XviD 1.2.1 (UTC 2008-12-04)
Аудио #1
Идентификатор : 1
Формат : MPEG Audio
Версия формата : Version 1
Профиль формата : Layer 3
Режим : Joint stereo
Расширение режима : MS Stereo
Идентификатор кодека : 55
Идентификатор кодека/Подсказка : MP3
Продолжительность : 44 м.
Вид битрейта : Постоянный
Битрейт : 128 Кбит/сек
Каналы : 2 канала
Частота : 48,0 КГц
Метод сжатия : С потерями
Размер потока : 41,2 Мбайт (7%)
Выравнивание : Соединение по промежуткам
Продолжительность промежутка : 40 мс. (1,00 видеокадр)
Время предзагрузки промежутка : 504 мс.
Заголовок : Russian (AlexFilm)
Аудио #2
Идентификатор : 2
Формат : MPEG Audio
Версия формата : Version 1
Профиль формата : Layer 3
Режим : Joint stereo
Расширение режима : MS Stereo
Идентификатор кодека : 55
Идентификатор кодека/Подсказка : MP3
Продолжительность : 44 м.
Вид битрейта : Постоянный
Битрейт : 128 Кбит/сек
Каналы : 2 канала
Частота : 48,0 КГц
Метод сжатия : С потерями
Размер потока : 41,2 Мбайт (7%)
Выравнивание : Соединение по промежуткам
Продолжительность промежутка : 40 мс. (1,00 видеокадр)
Время предзагрузки промежутка : 504 мс.
Заголовок : English
Скриншоты:
         
Вне форума [Профиль] [ЛС]
Показать сообщения:    
Ответить на тему

Текущее время: Сегодня 03:01

Часовой пояс: GMT + 3



Вы не можете начинать темы
Вы не можете отвечать на сообщения
Вы не можете редактировать свои сообщения
Вы не можете удалять свои сообщения
Вы не можете голосовать в опросах
Вы не можете прикреплять файлы к сообщениям
Вы не можете скачивать файлы