Сегодня идет свободное скачивание без начисления Download

Побег из тюрьмы / Prison Break (Бобби Рот) (1-4 сезоны 1-79 серии из 79) [2005-2009, Боевик, криминал, BDRip (720p), Dub]

Ответить на тему
 
Автор
Сообщение

Meshanik ®

Пол:

Стаж: 5 лет 11 месяцев

Сообщений: 4676

Откуда: Los Angeles

Торрент-статистика

Пост 14-Сен-2013 21:33

[Цитировать]

-Побег из тюрьмы / Prison Break«Совершить побег - не значит убежать...»- Год выпуска: 2005 - 2009
Производство: США
Жанр: Боевик, Триллер, Драма, Криминал, Детектив
Продолжительность: 79 x 00:44:00 / 01:29:05
Перевод: Профессиональный [дублированный]
Субтитры: Русский [UTF-8], Английский [UTF-8]
-Дата мировой премьеры: 29 августа 2005
Дата российской премьеры: 11 сентября 2008, «Двадцатый Век Фокс СНГ»
Дата выхода DVD/Blu-Ray релиза: 25 июня 2009, «Двадцатый Век Фокс СНГ»
-Режиссер: Бобби Рот, Кевин Хукс, Дуайт Х. Литтл
Продюсер: Марти Адельштейн, Гарри А. Браун, Нил Х. Мориц
В ролях: Вентворт Миллер / Wentworth Miller (Michael Scofield), Доминик Пёрселл / Dominic Purcell (Lincoln Burrows), Амори Ноласко / Amaury Nolasco (Fernando Sucre), Роберт Неппер / Robert Knepper (Theodore «T-Bag» Bagwell), Сара Уэйн Кэллис / Sarah Wayne Callies (Dr. Sara Tancredi), Уэйд Уильямс / Wade Williams (Brad Bellick), Уильям Фихтнер / William Fichtner (Alex Mahone), Пол Адельштейн / Paul Adelstein (Paul Kellerman).
- -Описание фильма:-Он проектировал тюрьмы и намеренно совершил преступление, чтобы попасть к своему брату и помочь ему. Ведь его брата засудила несправедливо и сейчас ему грозит смертная казнь. Этого человека зовут Майкл Скофилд, он отчаян, по причине отчаянной ситуации, ведь его брата Линкольна должны казнить за убийство, которого он не совершал. Он находится в камере смертников и это одна из самых охраняемых тюрем в стране. Даже не глядя на улики, он знает, что его брат не виноват.Автор постера: Ghost- -Качество: BDRip [720p]
Формат: MKV
Видео кодек: AVC
Аудио кодек: AC3
Видео: 1280x720 (16:9), 23.976 fps, AVC, 5 635 Kbps
Аудио #1: AC3, 384 Kbps, 48.0 KHz, 6 ch - дубляж [REN-TV]
Аудио #2: AC3, 384 Kbps, 48.0 KHz, 6 ch - многоголосый [REN-TV]
Аудио #3: AC3, 384 Kbps, 48.0 KHz, 6 ch - многоголосый [NovaFilm]
Аудио #4: AC3, 384 Kbps, 48.0 KHz, 6 ch - многоголосый [Cтудия Кравец]
-

Список серий...

-1 сезон:-01. Пилотный эпизод / Pilot
02. Аллен / Allen
03. В Проверка камеры / Cell Test
04. Хитрый Яд / Cute Poison
05. По какой из трех улиц? / English, Fitz or Percy
06. Бунт, Сверло и Дьявол: Часть 1 / Riots, Drills and the Devil: Part 1
07. Бунт, Сверло и Дьявол: Часть 2 / Riots, Drills and the Devil: Part 2
08. Старшой / The Old Head
09. Твинер / Tweener
10. Ловкость рук / Sleight of Hand
11. И вот их стало семеро / And Then There Were 7
12. Один лишний / Odd Man Out
13. Конец Туннеля / End of the Tunnel
14. Крыса / The Rat
15. По Коже и по Зубам / By the Skin and the Teeth
16. Сторож Брату Своему / Brother's Keeper
17. Джей-Кэт / J-Cat
18. Блеф / Bluff
19. Ключ / The Key
20. Сегодня Ночью / Tonight
21. Пошел! / Go
22. Полет / Flight-2 сезон:-01. Охота за людьми / Manhunt
02. Система слежения / Otis
03. Пристальное наблюдение / Scan
04. Первый провал / First Down
05. Карта 1213 / Map 1213
06. Межевание / Subdivision
07. Закопанный / Buried
08. Давящая ловушка / Dead Fall
09. Откопанный / Unearthed
10. Встречи / Rendezvous
11. Большая Попойка / Bolshoi Booze
12. Нарушенная Связь / Disconnect
13. Смертоносная камера / The Killing Box
14. Джон Доу / John Doe
15. Послание / The Message
16. Чикаго / Chicago
17. Дурная кровь / Bad Blood
18. След в потоке / Wash
19. Дорогая Керолайн / Sweet Caroline
20. Панама / Panama
21. Конец пути / Fin del camino
22. Сона / Sona-3 сезон:-01. Знакомство / Orientacion
02. Огонь и Вода / Fire/Water
03. В ожидании звонка / Call Waiting
04. Лазейка / Good Fences
05. Помехи / Interference
06. Фотофиниш / Photo Finish
07. Уходим! / Vamonos
08. Вжик! - и свободен / Bang & Burn
09. В клетке / Boxed In
10. Заживо погребённый / Dirt Nap
11. Выход — внизу / Under & Out
12. Чрез тернии / Hell or High Water
13. Мастерски справился / The Art of the Deal-4 сезон:-01-02. Сцилла / Scylla, Взлом / Breaking and Entering
03. Сбой / Shut Down
04. Орлы и Ангелы / Eagles and Angels
05. Сейф / Safe and sound
06. Провал / Blow Out
07. Осталась пятая / Five the Hard Way
08. Цена / The Price
09. Во все тяжкие / Greatness achieved
10. Легенда / The Legend
11. Тихий Бунт / Quiet Riot
12. Кидалово / Selfless
13. Торговцы / Deal or No Deal
14. Сделка / Just Business
15. Операция / Going Under
16. Солнечный штат / The Sunshine State
17. Весь в маму / The Mother Lode
18. Противостояние / VS.
19. Сукины Дети / S.O.B.
20. Казаки-Разбойники / Cowboys and Indians
21. Цена Вопроса / Rates of Exchange
22. Кто-то Должен Уйти / Killing Your Number
23-24. Последний Побег / The Final Break.-
-

MediaInfo

General
Complete name : Pobeg.iz.tjurmy.2.sezon.03.serija.iz.22.2006-2007.x264.BDRip.720p-Rock.mkv
Format : Matroska
File size : 2.19 GiB
Duration : 43mn 48s
Overall bit rate : 7 170 Kbps
Movie name : Prison Break S03E01
Encoded date : UTC 2010-03-23 17:25:58
Writing application : mkvmerge v3.2.0 ('Beginnings') built on Feb 12 2010 16:46:17
Writing library : libebml v0.7.9 + libmatroska v0.8.1
Video
ID : 1
Format : AVC
Format/Info : Advanced Video Codec
Format profile : High@L4.1
Format settings, CABAC : Yes
Format settings, ReFrames : 7 frames
Muxing mode : Container profile=Unknown@4.1
Codec ID : V_MPEG4/ISO/AVC
Duration : 43mn 48s
Bit rate : 5 635 Kbps
Width : 1 280 pixels
Height : 720 pixels
Display aspect ratio : 16:9
Frame rate : 23.976 fps
Color space : YUV
Chroma subsampling : 4:2:0
Bit depth : 8 bits
Scan type : Progressive
Bits/(Pixel*Frame) : 0.255
Stream size : 1.68 GiB (77%)
Title : Scan
Writing library : x264 core 80 r1376M 3feaec2
Encoding settings : cabac=1 / ref=7 / deblock=1:-3:-3 / analyse=0x3:0x113 / me=umh / subme=9 / psy=1 / psy_rd=0.9:0.1 / mixed_ref=1 / me_range=24 / chroma_me=1 / trellis=2 / 8x8dct=1 / cqm=0 / deadzone=21,11 / fast_pskip=0 / chroma_qp_offset=-3 / threads=12 / sliced_threads=0 / nr=0 / decimate=1 / mbaff=0 / constrained_intra=0 / bframes=5 / b_pyramid=2 / b_adapt=2 / b_bias=0 / direct=3 / wpredb=1 / wpredp=2 / keyint=250 / keyint_min=25 / scenecut=40 / rc=2pass / mbtree=0 / bitrate=5635 / ratetol=1.0 / qcomp=0.60 / qpmin=10 / qpmax=51 / qpstep=4 / cplxblur=20.0 / qblur=0.5 / ip_ratio=1.40 / pb_ratio=1.30 / aq=1:0.70
Audio #1
ID : 2
Format : AC-3
Format/Info : Audio Coding 3
Mode extension : CM (complete main)
Codec ID : A_AC3
Duration : 43mn 48s
Bit rate mode : Constant
Bit rate : 384 Kbps
Channel(s) : 6 channels
Channel positions : Front: L C R, Side: L R, LFE
Sampling rate : 48.0 KHz
Bit depth : 16 bits
Stream size : 120 MiB (5%)
Title : REN @ 5.1 384
Language : Russian
Audio #2
ID : 3
Format : AC-3
Format/Info : Audio Coding 3
Mode extension : CM (complete main)
Codec ID : A_AC3
Duration : 43mn 48s
Bit rate mode : Constant
Bit rate : 384 Kbps
Channel(s) : 6 channels
Channel positions : Front: L C R, Side: L R, LFE
Sampling rate : 48.0 KHz
Bit depth : 16 bits
Stream size : 120 MiB (5%)
Title : SRI @ 5.1 384
Language : Russian
Audio #3
ID : 4
Format : AC-3
Format/Info : Audio Coding 3
Mode extension : CM (complete main)
Codec ID : A_AC3
Duration : 43mn 48s
Bit rate mode : Constant
Bit rate : 384 Kbps
Channel(s) : 6 channels
Channel positions : Front: L C R, Side: L R, LFE
Sampling rate : 48.0 KHz
Bit depth : 16 bits
Stream size : 120 MiB (5%)
Title : NOVA @ 5.1 384
Language : Russian
Audio #4
ID : 5
Format : AC-3
Format/Info : Audio Coding 3
Mode extension : CM (complete main)
Codec ID : A_AC3
Duration : 43mn 48s
Bit rate mode : Constant
Bit rate : 384 Kbps
Channel(s) : 6 channels
Channel positions : Front: L C R, Side: L R, LFE
Sampling rate : 48.0 KHz
Bit depth : 16 bits
Stream size : 120 MiB (5%)
Title : ENG @ 5.1 384
Language : English
Text #1
ID : 6
Format : UTF-8
Codec ID : S_TEXT/UTF8
Codec ID/Info : UTF-8 Plain Text
Title : RUS @ SRT
Language : Russian
Text #2
ID : 7
Format : UTF-8
Codec ID : S_TEXT/UTF8
Codec ID/Info : UTF-8 Plain Text
Title : ENG @ SRT
Language : English
-« Скриншоты »-          -
Вне форума [Профиль] [ЛС]
Показать сообщения:    
Ответить на тему

Текущее время: Сегодня 07:33

Часовой пояс: GMT + 3



Вы не можете начинать темы
Вы не можете отвечать на сообщения
Вы не можете редактировать свои сообщения
Вы не можете удалять свои сообщения
Вы не можете голосовать в опросах
Вы не можете прикреплять файлы к сообщениям
Вы не можете скачивать файлы