Сегодня идет свободное скачивание без начисления Download

Подпольная империя (Преступная империя) / Boardwalk Empire (Сезон 4 Эпизод 8 из 12) [2013] HDTVRip (Ю.Сербин) [Обновляемая]

Ответить на тему
 
Автор
Сообщение

UndegraundMen ®

Стаж: 5 лет 8 месяцев

Сообщений: 25860

Торрент-статистика

Пост 11-Сен-2013 11:33

[Цитировать]

Подпольная империя (Преступная империя)
Boardwalk Empire
-
Название: Подпольная империя (Преступная империя)
Оригинальное название: Boardwalk Empire
Год выпуска: 2013
Жанр: Драма, криминал
Выпущено: США, Closest to the Hole Productions, Cold Front Productions, Home Box Office (HBO), Leverage Management, Sikelia Productions
Продолжительность: ~01:00:00
Перевод: Авторский одноголосый перевод (Ю. Сербин)-Режиссер: Тимоти Ван Паттен, Аллен Култер, Джереми Подесва
В ролях: Стив Бушеми, Майкл Питт, Келли Макдоналд, Майкл Шеннон, Ши Уигхэм, Алекса Палладино, Майкл Стулбарг, Стивен Грэм, Винсент Пьяцца, Джек Хьюстон
Описание фильма:
1920 год. Через несколько часов Атлантик-Сити — столица развлечений и порока, как и вся Америка, вступит в эпоху «Сухого закона». Енох «Наки» Томпсон, днем — городской казначей, а ночью — хитроумный гангстер со связями на самом «верху», решает воспользоваться ситуацией и получить баснословные прибыли на подпольной торговле алкоголем. Однако не он один жаждет обогатиться на новом промысле…-
Сэмпл: -Качество: HDTVRip
Видео: MPEG4, XviD, 720x400 (16:9), 23.976 fps, 1 334 Kbps (0.193 bit/pixel)
Звук:
Audio Rus: MP3, 48.0 KHz, 2 ch, 128 Kbps, CBR
Audio Eng: MP3, 48.0 KHz, 2 ch, 128 Kbps, CBR
-

Наименование серий:

01. Нью-Йорк Сауэр / New York Sour
02. Уступка / Resignation
03. Акры алмазов / Acres of Diamonds
04. Включая все / All In
05. Лесной царь / Erlkönig
06. Северная звезда / The North Star
07. Уильям Уилсон / William Wilson
08. Старый корабль Сиона / The Old Ship of Zion

Дополнительная информация:

Перевод Ю.Сербина осуществлен в рамках сервиса "Озвучивание" (HDClub)
Спонсоры: rubak, denismgn1987, ochkarik1, Loki1982, Max_U, ray_hollis, SckraT, FM1981, RAUL, oak, Confidence, deadbeef
Работа со звуком: Nez

Отчет MediaInfo:

Код:
Полное имя                       : F:\Сериал\раздача\Boardwalk.Empire.s04.Serbin\Boardwalk.Empire.s04e01.Serbin.avi
Формат                           : AVI
Формат/Информация                : Audio Video Interleave
Размер файла                     : 672 Мбайт
Продолжительность                : 58 м.
Общий поток                      : 1604 Кбит/сек
Программа кодирования            : VirtualDubModRus 1.5.10.2 (build 2542/release)
Библиотека кодирования           : VirtualDubMod build 2542/release
Видео
Идентификатор                    : 0
Формат                           : MPEG-4 Visual
Профиль формата                  : Advanced Simple@L5
Параметр BVOP формата            : 2
Параметр QPel формата            : Нет
Параметр GMC формата             : Без точки перехода
Параметр матрицы формата         : Default (MPEG)
Идентификатор кодека             : XVID
Идентификатор кодека/Подсказка   : XviD
Продолжительность                : 58 м.
Битрейт                          : 1334 Кбит/сек
Ширина                           : 720 пикс.
Высота                           : 400 пикс.
Соотношение сторон               : 16:9
Частота кадров                   : 23,976 кадр/сек
Цветовое пространство            : YUV
Подвыборка цветности             : 4:2:0
Битовая глубина                  : 8 бит
Тип развёртки                    : Прогрессивная
Метод сжатия                     : С потерями
Бит/(Пиксели*Кадры)              : 0.193
Размер потока                    : 559 Мбайт (83%)
Библиотека кодирования           : XviD 64
Аудио #1
Идентификатор                    : 1
Формат                           : MPEG Audio
Версия формата                   : Version 1
Профиль формата                  : Layer 3
Идентификатор кодека             : 55
Идентификатор кодека/Подсказка   : MP3
Продолжительность                : 58 м.
Вид битрейта                     : Постоянный
Битрейт                          : 128 Кбит/сек
Каналы                           : 2 канала
Частота                          : 48,0 КГц
Метод сжатия                     : С потерями
Размер потока                    : 53,6 Мбайт (8%)
Выравнивание                     : Соединение по промежуткам
Продолжительность промежутка     : 42  мс. (1,00 видеокадр)
Время предзагрузки промежутка    : 504 ms
Библиотека кодирования           : LAME3.99r
Настройки программы              : -m s -V 4 -q 2 -lowpass 17 -b 128
Аудио #2
Идентификатор                    : 2
Формат                           : MPEG Audio
Версия формата                   : Version 1
Профиль формата                  : Layer 3
Режим                            : Joint stereo
Расширение режима                : MS Stereo
Идентификатор кодека             : 55
Идентификатор кодека/Подсказка   : MP3
Продолжительность                : 58 м.
Вид битрейта                     : Постоянный
Битрейт                          : 128 Кбит/сек
Каналы                           : 2 канала
Частота                          : 48,0 КГц
Метод сжатия                     : С потерями
Размер потока                    : 53,6 Мбайт (8%)
Выравнивание                     : Соединение по промежуткам
Продолжительность промежутка     : 42  мс. (1,00 видеокадр)
Время предзагрузки промежутка    : 504 ms
699186

Внимание! Раздача ведётся путём добавления новых серий

Внимание! Раздача ведётся путём добавления новых серий; при каждом добавлении создаётся новый торрент. Чтобы начать докачку новой серии, пользователям необходимо сделать следующее:
(1) остановить скачивание,
(2) удалить старый торрент у себя из клиента (старые серии удалять не надо),
(3) скачать новый торрент и запустить его у себя в клиенте вместо старого, при этом указать клиенту путь в старую папку куда и должно происходить скачивание новых серий.
Ваш клиент при этом должен произвести хеширование (проверку) старой папки (если не производит сам - помогите ему сделать это), и будет докачивать только те серии которых у вас ещё нет. Старые серии при этом не удаляются, а продолжают раздаваться!
Eсли вы уже удалили старые серии, то предотвратить повторную закачку старых серий можно, отжав галочку в соответствующих местах при запуске нового торрента. По возможности, желательно не удалять старые серии как можно дольше чтобы релизёр не столько продолжал раздавать старые серии, а смог сконцентрироваться на новых.
Скриншоты:
       
       
Вне форума [Профиль] [ЛС]
Показать сообщения:    
Ответить на тему

Текущее время: Сегодня 15:03

Часовой пояс: GMT + 3



Вы не можете начинать темы
Вы не можете отвечать на сообщения
Вы не можете редактировать свои сообщения
Вы не можете удалять свои сообщения
Вы не можете голосовать в опросах
Вы не можете прикреплять файлы к сообщениям
Вы не можете скачивать файлы