Сегодня идет свободное скачивание без начисления Download

Неприкасаемые / The Untouchables (1993) DVDRip [Сезон 1, Серии 1-9 из 18] (обновляемая)

Ответить на тему
 
Автор
Сообщение

UndegraundMen ®

Стаж: 5 лет 6 месяцев

Сообщений: 25860

Торрент-статистика

Пост 09-Сен-2013 17:00

[Цитировать]

Неприкасаемые / The Untouchables (1993) DVDRip [Сезон 1, Серии 1-9 из 18] (обновляемая)- Русское название: Неприкасаемые
Оригинальное название: The Untouchables
Год выпуска: 1993
Жанр: Криминал, Драма, Детектив
Перевод: Одноголосый закадровый, любительский
Озвучка / Автор перевода: ID-Daemon
Вид субтитров: Отсутствуют

Дата мировой премьеры: 11.01.1993
Режиссер: Верн Джиллам, Стив Де Джарнатт, Таккер Гейтс, Чарльз Роберт Карнер
Актеры: Том Амандес, Джон Хеймс Ньютон, Дэвид Джеймс Эллиотт, Уильям Форсайт, Пол Реджина, Джон Рис-Дэвис
Описание фильма:
Сериал рассказывает о деятельности специального подразделения ФБР в эпоху сухого закона в США. Главный герой - специальный агент Элиот Несс, который ведет борьбу с подпольной деятельностью самого известного мафиози того времени Аль Капоне.
Продолжительность: серия ~ 00:45:00
Качество видео: DVDRip
Сэмпл: Скачать
Видеокодек: Xvid
Битрейт видео: ~996 Kbps
Размер кадра: 640x480
Аудиокодек: MP3
Битрейт аудио: 192 Kbps CBR
Скриншоты:

MI

General
Complete name : I:\Untouchables 1993\s_1_d_1\The Untouchables(1993).s01e01.avi
Format : AVI
Format/Info : Audio Video Interleave
File size : 375 MiB
Duration : 43mn 46s
Overall bit rate : 1 198 Kbps
Writing application : VirtualDubMod 1.5.10.2 (build 2540/release)
Writing library : VirtualDubMod build 2540/release
Video
ID : 0
Format : MPEG-4 Visual
Format profile : Advanced Simple@L5
Format settings, BVOP : Yes
Format settings, QPel : No
Format settings, GMC : No warppoints
Format settings, Matrix : Custom
Codec ID : XVID
Codec ID/Hint : XviD
Duration : 43mn 46s
Bit rate : 996 Kbps
Width : 640 pixels
Height : 480 pixels
Display aspect ratio : 4:3
Frame rate : 25.000 fps
Color space : YUV
Chroma subsampling : 4:2:0
Bit depth : 8 bits
Scan type : Progressive
Bits/(Pixel*Frame) : 0.130
Stream size : 312 MiB (83%)
Writing library : XviD 1.2.0.dev47 (UTC 2006-11-01)
Audio
ID : 1
Format : MPEG Audio
Format version : Version 1
Format profile : Layer 3
Mode : Joint stereo
Mode extension : Intensity Stereo
Codec ID : 55
Codec ID/Hint : MP3
Duration : 43mn 46s
Bit rate mode : Constant
Bit rate : 192 Kbps
Channel(s) : 2 channels
Sampling rate : 48.0 KHz
Stream size : 60.1 MiB (16%)
Alignment : Split accross interleaves
Interleave, duration : 40 ms (1.00 video frame)
Interleave, preload duration : 500 ms
Вне форума [Профиль] [ЛС]
Показать сообщения:    
Ответить на тему

Текущее время: Сегодня 15:09

Часовой пояс: GMT + 3



Вы не можете начинать темы
Вы не можете отвечать на сообщения
Вы не можете редактировать свои сообщения
Вы не можете удалять свои сообщения
Вы не можете голосовать в опросах
Вы не можете прикреплять файлы к сообщениям
Вы не можете скачивать файлы