Сегодня идет свободное скачивание без начисления Download

В Филадельфии всегда солнечно / It\'s Always Sunny in Philadelphia (2013) WEB-DLRip (Сезон 9, серия 1 (10)) (LostFilm) (Обновляемая)

Ответить на тему
 
Автор
Сообщение

UndegraundMen ®

Стаж: 5 лет 3 месяца

Сообщений: 25871

Торрент-статистика

Пост 07-Сен-2013 23:05

[Цитировать]

В Филадельфии всегда солнечно / It's Always Sunny in Philadelphia (2013) WEB-DLRip (Сезон 9, серия 1 (10)) (LostFilm) (Обновляемая)- Год выпуска: 2013
Жанр: Комедия
Перевод: Профессиональный многоголосый закадровый (LostFilm)
Релиз группа:

Режиссер: Мэтт Шекман, Ричи Кин, Тодд Бирман
Актеры: Чарли Дэй, Гленн Хоуертон, Роб МакЭлхенни, Кэйтлин Олсен, Дэнни ДеВито и др.
Описание фильма:
Комедийный сериал Роба МакЭлхенни повествует о четырёх молодых друзьях - владельцах ирландского паба в депрессивном районе Филадельфии. Бизнес у ребят идёт не слишком успешно, но это не мешает им регулярно находить приключения на отдельные части своего тела.
Главные герои ситкома - Мак, Чарли, Деннис и Ди - аморальны, беспринципны, неполиткорректны и готовы врать напропалую ради достижения собственных целей. К тому же постоянно "воюют" друг с другом. Впрочем, в большинстве случаев эти качества не приводят их ни к чему хорошему. В результате вся "шайка" регулярно попадает в самые нелепейшие ситуации. Одну из главных ролей в сериале исполнил Денни ДеВито.
Сэмпл:
Продолжительность: 00:23:29
Качество видео: WEB-DLRip
Видеокодек: Xvid
Битрейт видео: ~1915
Размер кадра: 720x400
Аудио Rus: 48 kHz, MPEG Layer 3, 2 ch, 128 kbps
Скриншоты:
       

MI

eneral
Полное имя : D:\Новые фильмы\В Филадельфии всегда солнечно s9\Its.Always.Sunny.in.Philadelphia.S09E01.rus.LostFilm.TV.avi
Формат : AVI
Формат/Информация : Audio Video Interleave
Размер файла : 356 MiB
Продолжительность : 23mn 29s
Режим общего битрейта : Variable
Общий поток : 2 117 Kbps
Программа кодирования : Nandub v1.0rc2
Библиотека кодирования : Nandub build 1853/release
Video
Идентификатор : 0
Формат : MPEG-4 Visual
Профиль формата : Simple@L3
Параметр BVOP формата : No
Параметр QPel формата : No
Параметр GMC формата : No warppoints
Параметр матрицы формата : Default (H.263)
Идентификатор кодека : XVID
Идентификатор кодека/Подсказка : XviD
Продолжительность : 23mn 29s
Битрейт : 1 915 Kbps
Ширина : 720 pixels
Высота : 400 pixels
Соотношение сторон : 16:9
Частота кадров : 23.976 fps
Цветовое пространство : YUV
Субдискретизация насыщенности : 4:2:0
Битовая глубина : 8 bits
Тип развёртки : Progressive
Метод сжатия : Lossy
Бит/(Пиксели*Кадры) : 0.277
Размер потока : 322 MiB (90%)
Библиотека кодирования : XviD 1.2.1 (UTC 2008-12-04)
Audio
Идентификатор : 1
Формат : MPEG Audio
Версия формата : Version 1
Профиль формата : Layer 3
Режим : Joint stereo
Расширение режима : MS Stereo
Идентификатор кодека : 55
Идентификатор кодека/Подсказка : MP3
Продолжительность : 23mn 29s
Вид битрейта : Variable
Битрейт : 192 Kbps
Каналы : 2 channels
Частота : 48.0 KHz
Метод сжатия : Lossy
Размер потока : 31.8 MiB (9%)
Выравнивание : Aligned on interleaves
Продолжительность промежутка : 24 ms (0.58 video frame)
Время предзагрузки промежутка : 487 ms
Библиотека кодирования : LAME3.97b
Настройки программы : -m j -V 4 -q 3 -lowpass 18.6 --abr 192

Внимание! Раздача ведётся путём добавления новых серий

Внимание! Раздача ведётся путём добавления новых серий; при каждом добавлении создаётся новый торрент.
Чтобы начать докачку новой серии, пользователям необходимо сделать следующее:
1. Остановить скачивание;
2. Удалить старый торрент у себя из клиента (старые серии удалять не надо);
3. Скачать новый торрент и запустить его у себя в клиенте вместо старого, при этом указать клиенту путь в старую папку куда и должно происходить скачивание новых серий. Ваш клиент при этом должен произвести хеширование (проверку) старой папки и будет докачивать только те серии, которых у вас ещё нет. Старые серии при этом не удаляются, а продолжают раздаваться! Eсли вы уже удалили старые серии, то предотвратить повторную закачку старых серий можно, отжав галочку в соответствующих местах при запуске нового торрента.
Время раздачи: 24/7
Вне форума [Профиль] [ЛС]
Показать сообщения:    
Ответить на тему

Текущее время: Сегодня 00:30

Часовой пояс: GMT + 3



Вы не можете начинать темы
Вы не можете отвечать на сообщения
Вы не можете редактировать свои сообщения
Вы не можете удалять свои сообщения
Вы не можете голосовать в опросах
Вы не можете прикреплять файлы к сообщениям
Вы не можете скачивать файлы