Сегодня идет свободное скачивание без начисления Download

Маша и Медведь: Трудно быть маленьким. / Серии: 35 серия (Олег Кузовков, Владислав Байрамгулов) [2013 г., мультфильм, короткометражка, комедия, семейный, WEBRip]

Ответить на тему
 
Автор
Сообщение

Omen ®

Стаж: 4 года 10 месяцев

Сообщений: 190643

Торрент-статистика

Пост 02-Сен-2013 19:12

[Цитировать]

-Маша и Медведь: Трудно быть маленьким.
(35 серия)
-- Производство: Россия
Жанр: мультфильм, короткометражка, комедия, семейный
Год выпуска: 2013 г.
Продолжительность: 00:06:57
Режиссер: Олег Кузовков, Владислав Байрамгулов
Персонажи: Алина Кукушкина, Эдуард Назаров, Борис Кутневич
Перевод: Не требуется
Описание: Маша опять решает проявить заботу о своей любимой деточке - свинье, но её старания оборачиваются чередой неприятностей для всех жителей леса. Спасаясь от Маши, звери оказываются в доме у Медведя и начинают жалуясь, возмущаться её поведением. Но тут Медведь, задумавшись, вспоминает свое детство и предлагает другим тоже вспомнить, каково это – быть маленьким.-
Качество видео: WEBRip
Контейнер: AVI
Видео кодек: XviD
Аудио кодек: MP3
Видео: xvid at 2096 Кбит/сек, 720 x 400 (1.800) at 29.970 fps
Аудио: MPEG Audio at 256 Кбит/сек, 2 канала, 44,1 КГц
Cубтитры: отсутствуют

MediaInfo

Код:
Общее
Полное имя                               : E:\uTorDown\uTorrent\Masha.i.medved\Masha.i.Medved.Trudno.byt.malenkim.2013.WEBRip.avi
Формат                                   : AVI
Формат/Информация                        : Audio Video Interleave
Размер файла                             : 115 Мбайт
Продолжительность                        : 6 м. 48 с.
Общий поток                              : 2365 Кбит/сек
Программа кодирования                    : Lavf52.93.0
Библиотека кодирования                   : VirtualDub build 29808/release
Видео
Идентификатор                            : 0
Формат                                   : xvid
Идентификатор кодека                     : xvid
Продолжительность                        : 6 м. 48 с.
Битрейт                                  : 2096 Кбит/сек
Ширина                                   : 720 пикселей
Высота                                   : 400 пикселей
Соотношение сторон                       : 16:9
Частота кадров                           : 29,970 кадров/сек
Бит/(Пиксели*Кадры)                      : 0.243
Размер потока                            : 102 Мбайт (89%)
Аудио
Идентификатор                            : 1
Формат                                   : MPEG Audio
Версия формата                           : Version 1
Профиль формата                          : Layer 3
Режим                                    : Joint stereo
Идентификатор кодека                     : 55
Идентификатор кодека/Подсказка           : MP3
Продолжительность                        : 6 м. 48 с.
Вид битрейта                             : Постоянный
Битрейт                                  : 256 Кбит/сек
Каналы                                   : 2 канала
Частота                                  : 44,1 КГц
Метод сжатия                             : С потерями
Размер потока                            : 12,5 Мбайт (11%)
Выравнивание                             : Соединение по промежуткам
Продолжительность промежутка             : 26  мс. (0,78 видеокадр)
Время предзагрузки промежутка            : 522  мс.

Скриншот c названием мультфильма

 
Скриншоты:
           
Вне форума [Профиль] [ЛС]
Показать сообщения:    
Ответить на тему

Текущее время: Сегодня 13:52

Часовой пояс: GMT + 3



Вы не можете начинать темы
Вы не можете отвечать на сообщения
Вы не можете редактировать свои сообщения
Вы не можете удалять свои сообщения
Вы не можете голосовать в опросах
Вы не можете прикреплять файлы к сообщениям
Вы не можете скачивать файлы