Сегодня идет свободное скачивание без начисления Download

Зайцы Засранцы / Нашествие Кроликов / Rabbids Invasion (Fabien Ouvrard, Stéphane Mitt, Franz Kirchner) (Комедия, Компьютерная анимация 2013) WEB-DL [H.264/720p-LQ] (1 сезон, серии 1-1 из 26) (VO-production) [Обновляемая]

Ответить на тему
 
Автор
Сообщение

Omen ®

Стаж: 5 лет

Сообщений: 190529

Торрент-статистика

Пост 01-Сен-2013 00:18

[Цитировать]

Зайцы Засранцы / Нашествие Кроликов
Rabbids Invasion
- Год выпуска: 2013
Жанр: Комедия, Компьютерная анимация
Описание:
Анимационный сериал про безбашенных зайцев по мотивам компьютерной игры Rabbids Go Home и других от компании Ubisoft.
Режиссер: Fabien Ouvrard, Stéphane Mitt, Franz Kirchner
Персонажи: Кролики

Продолжительность: ~00:21:13 серия
Качество видео: WEB-DL 720p
Перевод: Многоголосый закадровый (VO-production)
Видеокодек: MPEG-4 AVC/H.264
Битрейт видео: ~3000 kb/s
Размер кадра: 1280x720
Аудиокодек: AC3
Битрейт аудио: 256 kb/s (2 ch)
Сэмпл: Ссылка

MI

Общее
Уникальный идентификатор : 182268678883382810592638321560894226934 (0x891FABB04733B18E873EB4815512C1F6)
Полное имя : C:\Users\Колян\Downloads\Rabbids_Invasion_WEBDL_VOprod\Rabbids_Invasion_0101_WEBDL_VOprod.mkv
Формат : Matroska
Версия формата : Version 1
Размер файла : 447 Мбайт
Продолжительность : 21 м.
Режим общего битрейта : Переменный
Общий поток : 2961 Кбит/сек
Дата кодирования : UTC 2013-08-28 18:16:21
Программа кодирования : mkvmerge v2.4.2 ('Oh My God') built on Jan 18 2009 17:30:28
Библиотека кодирования : libebml v0.7.7 + libmatroska v0.8.1
Видео
Идентификатор : 1
Формат : AVC
Формат/Информация : Advanced Video Codec
Профиль формата : [url=mailto:High@L3.2]High@L3.2[/url]
Параметр CABAC формата : Да
Параметр ReFrames формата : 4 кадра
Идентификатор кодека : V_MPEG4/ISO/AVC
Продолжительность : 21 м.
Вид битрейта : Переменный
Битрейт : 2646 Кбит/сек
Максимальный битрейт : 6808 Кбит/сек
Ширина : 1280 пикселей
Высота : 720 пикселей
Соотношение сторон : 16:9
Режим частоты кадров : Постоянный
Частота кадров : 29,970 кадров/сек
Стандарт вещания : NTSC
Цветовое пространство : YUV
Субдискретизация насыщенности : 4:2:0
Битовая глубина : 8 бит
Тип развёртки : Прогрессивная
Бит/(Пиксели*Кадры) : 0.096
Размер потока : 399 Мбайт (89%)
Заголовок : H.264
Default : Да
Forced : Нет
Аудио
Идентификатор : 2
Формат : AC-3
Формат/Информация : Audio Coding 3
Расширение режима : CM (complete main)
Параметр Endianness формата : Big
Идентификатор кодека : A_AC3
Продолжительность : 21 м.
Вид битрейта : Постоянный
Битрейт : 256 Кбит/сек
Каналы : 2 канала
Расположение каналов : Front: L R
Частота : 48,0 КГц
Битовая глубина : 16 бит
Метод сжатия : С потерями
Размер потока : 38,6 Мбайт (9%)
Заголовок : VO-production
Язык : Russian
Default : Да
Forced : Нет
Скриншоты:
       
Вне форума [Профиль] [ЛС]
Показать сообщения:    
Ответить на тему

Текущее время: Сегодня 12:16

Часовой пояс: GMT + 3



Вы не можете начинать темы
Вы не можете отвечать на сообщения
Вы не можете редактировать свои сообщения
Вы не можете удалять свои сообщения
Вы не можете голосовать в опросах
Вы не можете прикреплять файлы к сообщениям
Вы не можете скачивать файлы