Сегодня идет свободное скачивание без начисления Download

Дневники Вампира / The Vampire Diaries / Сезон 3 (1-2 из 22) (Маркос Сига) [2011-2012 гг., ужасы, драма, WEB-DL 720p] (LostFilm)

Ответить на тему
 
Автор
Сообщение

nsa1977 ®

Пол:

Стаж: 7 лет 11 месяцев

Сообщений: 1499

Откуда: Пенза

Торрент-статистика

Пост 18-Сен-2011 23:22

[Цитировать]

-Дневники Вампира / The Vampire Diaries
Сезон 3 / 1-2 из 22 (22)
-«Love sucks»-
Год выпуска: 2011-2012
Страна: США | CW
Жанр: ужасы, драма
Продолжительность: ~ 00:44:00
Перевод: Профессиональный (многоголосый , закадровый) - LostFilm
Режиссер: Маркос Сига / Marcos Siega
В ролях: Нина Добрев, Пол Уэсли, Иен Сомерхолдер, Стивен Р. МакКуин, Катерина Грэхэм, Кэндис Аккола, Зак Рериг, Сара Каннинг , Майкл Тревино, Мэттью Дэвис, Маргарит МакИнтайр, Малез Джоу и др.
Описание: Прошло всего четыре месяца после трагической аварии, в которой погибли их родители, и 17-летняя Елена Гилберт и ее 15-летний брат Джереми все еще пытаются оправиться от потери и вернуться к нормальной жизни. Елена всегда была отличной ученицей, красивой и популярной девушкой в школе, но теперь ей очень тяжело скрывать свою печаль от внешнего мира. В начале учебного года внимание Елены и ее друзей привлекает новый ученик, загадочный и красивый Стефан Сальваторе.
Стефан и Елена тут же чувствуют взаимную симпатию, но Елена даже не подозревает, что Стефан - вампир, которому уже сотни лет, и который старается мирно жить среди людей, несмотря на то, что его брат, Дэймон - воплощение вампирской жестокости и кровожадности. Теперь два брата-вампира - один добрый, другой злой - ведут борьбу за души Елены, ее друзей и других жителей городка Мистик Фоллз.
Качество: WEB-DL 720p
Формат: MKV
Видео кодек: x264
Аудио кодек: AC3
Видео: 1280x720 at 23.976 fps, MPEG-4 AVC, ~4000 kbps avg, ~4000 kbps avg, 0.172 b/pixel
Аудио #1 :Russian: Dolby Digital 5.1, 48 kHz, 448 kbps |Многоголосый закадровый, LostFilm
Аудио #2 : English: Dolby Digital 5.1, 48 kHz, 384 kbps
|||| Sample

Список серий


1. День рождения (The Birthday)

MI

General
Unique ID : 227562049152571887117519477624255818503 (0xAB32DB416A469B1BB7AAD201969C2B07)
Complete name : I:\Раздачи\Дневники Вампира - 3 сезон (WEB-DL 720p)\The.Vampire.Diaries.S03E01.HD.rus.LostFilm.TV.mkv
Format : Matroska
File size : 1.30 GiB
Duration : 42mn 5s
Overall bit rate : 4 426 Kbps
Encoded date : UTC 2011-09-18 16:49:57
Writing application : mkvmerge v4.2.0 ('No Talking') сборка от Jul 28 2010 18:38:23
Writing library : libebml v1.0.0 + libmatroska v1.0.0
Video
ID : 1
Format : AVC
Format/Info : Advanced Video Codec
Format profile : High@L3.1
Format settings, CABAC : Yes
Format settings, ReFrames : 4 frames
Format settings, GOP : M=2, N=4
Codec ID : V_MPEG4/ISO/AVC
Duration : 42mn 5s
Bit rate : 4 041 Kbps
Width : 1 280 pixels
Height : 720 pixels
Display aspect ratio : 16:9
Frame rate : 23.976 fps
Color space : YUV
Chroma subsampling : 4:2:0
Bit depth : 8 bits
Scan type : Progressive
Bits/(Pixel*Frame) : 0.183
Stream size : 1.16 GiB (89%)
Writing library : x264 core 107 r1745 4785e8e
Encoding settings : cabac=1 / ref=3 / deblock=1:0:0 / analyse=0x3:0x113 / me=hex / subme=7 / psy=1 / psy_rd=1.00:0.00 / mixed_ref=1 / me_range=16 / chroma_me=1 / trellis=1 / 8x8dct=1 / cqm=0 / deadzone=21,11 / fast_pskip=1 / chroma_qp_offset=-2 / threads=4 / sliced_threads=0 / nr=0 / decimate=1 / interlaced=0 / constrained_intra=0 / bframes=3 / b_pyramid=2 / b_adapt=1 / b_bias=0 / direct=1 / weightb=1 / open_gop=0 / weightp=2 / keyint=250 / keyint_min=25 / scenecut=40 / intra_refresh=0 / rc_lookahead=40 / rc=2pass / mbtree=1 / bitrate=4041 / ratetol=1.0 / qcomp=0.60 / qpmin=10 / qpmax=51 / qpstep=4 / cplxblur=20.0 / qblur=0.5 / ip_ratio=1.40 / aq=1:1.00
Audio
ID : 2
Format : AC-3
Format/Info : Audio Coding 3
Mode extension : CM (complete main)
Codec ID : A_AC3
Duration : 42mn 5s
Bit rate mode : Constant
Bit rate : 384 Kbps
Channel(s) : 2 channels
Channel positions : Front: L R
Sampling rate : 44.1 KHz
Bit depth : 16 bits
Compression mode : Lossy
Stream size : 116 MiB (9%)
Language : Russian

Раздача ведётся путём добавления новых серий

Раздача ведётся путём добавления новых серий; при каждом добавлении создаётся новый торрент. Чтобы начать докачку новой серии, пользователям необходимо сделать следующее:
(1) остановить скачивание,
(2) удалить старый торрент у себя из клиента (старые серии удалять не надо),
(3) скачать новый торрент и запустить его у себя в клиенте вместо старого, при этом указать клиенту путь в старую папку куда и должно происходить скачивание новых серий.
Ваш клиент при этом должен произвести хеширование (проверку) старой папки (если не производит сам - помогите ему сделать это), и будет докачивать только те серии которых у вас ещё нет. Старые серии при этом не удаляются, а продолжают раздаваться!
Eсли вы уже удалили старые серии, то предотвратить повторную закачку старых серий можно, отжав галочку в соответствующих местах при запуске нового торрента. По возможности, желательно не удалять старые серии как можно дольше чтобы релизёр не столько продолжал раздавать старые серии, а смог сконцентрироваться на новых.
-          

_________________


Последний раз редактировалось: nsa1977 (2011-10-01 22:48), всего редактировалось 3 раз(а)
Вне форума [Профиль] [ЛС]
Показать сообщения:    
Ответить на тему

Текущее время: Сегодня 00:14

Часовой пояс: GMT + 3



Вы не можете начинать темы
Вы не можете отвечать на сообщения
Вы не можете редактировать свои сообщения
Вы не можете удалять свои сообщения
Вы не можете голосовать в опросах
Вы не можете прикреплять файлы к сообщениям
Вы не можете скачивать файлы