Сегодня идет свободное скачивание без начисления Download

Дневники Вампира / Vampire Diaries (Сезон 3, Эпизоды 1-3 из 22) (Маркос Сига) [2011, ужасы, драма, WEB-DLRip] (LostFilm)

Ответить на тему
 
Автор
Сообщение

nsa1977 ®

Пол:

Стаж: 8 лет 5 месяцев

Сообщений: 1492

Откуда: Пенза

Торрент-статистика

Пост 18-Сен-2011 23:10

[Цитировать]


Дневники Вампира / Vampire DiariesЭпизоды 1-3 из 22
Год выпуска: 2011
Страна: США, Alloy Entertainment
Жанр: ужасы, драма
Продолжительность: 00:41:54
Перевод: Профессиональный Многоголосый закадровый ( LostFilm )
Русские субтитры: нет
Субтитры: отсутствуют
Режиссёр: Маркос Сига
-В ролях: Нина Добрев (Nina Dobrev), Пол Уэсли (Paul Wesley), Йан Сомерхалдер (Ian Somerhalder), Стивен Р. МакКуин (Steven R. McQueen), Катерина Грэхэм (Katerina Graham)-Описание: Елена — «золотая» девочка, она привыкла, что мальчики стоят перед ней на коленях. Стефан — темноволосый красавец, он никогда не смотрит на солнце и прячет глаза за темными очками. Он — единственный, на кого чары Елены не действуют, хотя он и пытается защитить ее от мрачных тайн своего прошлого. Дэймон — его сексуальный и жестокий брат, он всю жизнь посвятил мести Стефану, когда-то предавшему его. Сейчас ему нужна Елена и он пойдет на все, чтобы добиться ее тела. И заполучить ее душу. Дневники вампира: история прекрасной Елены, по воле рока ставшей причиной смертельной схватки братьев-вампиров.-Качество: WEB-DLRip
Формат: AVI
Видео кодек: XviD
Аудио кодек: MP3
Видео: 704x400 (1.76:1), 23.976 fps, 1323 kbps avg, 0.20 bit/pixel
Аудио: 48 kHz, MPEG Layer 3, 2 ch, ~128.00 kbps avg
-- -

MI


General
Complete name : I:\Закачки\The.Vampire.Diaries.S03E01.rus.LostFilm.TV.avi
Format : AVI
Format/Info : Audio Video Interleave
File size : 441 MiB
Duration : 42mn 5s
Overall bit rate : 1 465 Kbps
Writing application : Nandub v1.0rc2
Writing library : Nandub build 1853/release
Video
Format : MPEG-4 Visual
Format profile : Streaming Video@L1
Format settings, BVOP : No
Format settings, QPel : No
Format settings, GMC : No warppoints
Format settings, Matrix : Custom
Codec ID : XVID
Codec ID/Hint : XviD
Duration : 42mn 5s
Bit rate : 1 324 Kbps
Width : 704 pixels
Height : 400 pixels
Display aspect ratio : 16/9
Frame rate : 23.976 fps
Resolution : 24 bits
Colorimetry : 4:2:0
Scan type : Progressive
Bits/(Pixel*Frame) : 0.196
Stream size : 398 MiB (90%)
Writing library : XviD 64
Audio
Format : MPEG Audio
Format version : Version 1
Format profile : Layer 3
Codec ID : 55
Codec ID/Hint : MP3
Duration : 42mn 5s
Bit rate mode : Constant
Bit rate : 128 Kbps
Channel(s) : 2 channels
Sampling rate : 48.0 KHz
Resolution : 16 bits
Video delay : 1ms
Stream size : 38.5 MiB (9%)
Alignment : Aligned on interleaves
Interleave, duration : 24 ms (0.58 video frame)
Interleave, preload duration : 481 ms

Внимание! Раздача ведётся путём добавления новых серий!

Внимание! Раздача ведётся путём добавления новых серий; при каждом добавлении создётся новый торрент. Чтобы начать докачку новой серии, пользователям необходимо сделать следующее:
(1) остановить скачивание,
(2) удалить старый торрент у себя из клиента (старые серии удалять не надо),
(3) скачать новый торрент и запустить его у себя в клиенте вместо старого, при этом указать клиенту путь в старую папку куда и должно происходить скачивание новых серий.
Ваш клиент при этом должен произвести хеширование (проверку) старой папки (если не производит сам - помогите ему сделать это), и будет докачивать только те серии которых у вас ещё нет. Старые серии при этом не удаляются, а продолжают раздаваться!
Eсли вы уже удалили старые серии, то предотвратить повторную закачку старых серий можно, отжав галочку в соответсвующих местах при запуске нового торрента.
--        Релиз:

_________________


Последний раз редактировалось: nsa1977 (2011-10-01 22:53), всего редактировалось 1 раз
Вне форума [Профиль] [ЛС]
Показать сообщения:    
Ответить на тему

Текущее время: Сегодня 20:12

Часовой пояс: GMT + 3



Вы не можете начинать темы
Вы не можете отвечать на сообщения
Вы не можете редактировать свои сообщения
Вы не можете удалять свои сообщения
Вы не можете голосовать в опросах
Вы не можете прикреплять файлы к сообщениям
Вы не можете скачивать файлы