Сегодня идет свободное скачивание без начисления Download

Губка Боб Квадратные Штаны / SpongeBob SquarePants / Сезон: 7 / Серии: 01-26 из 26 (Стивен Хилленбург / Stephen Hillenburg) [2009-2011, Мультипликация, приключения, DVDRip] Dub

Ответить на тему
 
Автор
Сообщение

Omen ®

Стаж: 4 года 10 месяцев

Сообщений: 190643

Торрент-статистика

Пост 29-Авг-2013 16:34

[Цитировать]

Губка Боб Квадратные Штаны / SpongeBob SquarePants- Страна: США
Жанр: Мультипликация, приключения
Продолжительность: 11:00 / 22:00 серия
Год выпуска: 2009-2011
Перевод: Профессиональный (дублированный)-Релиз от: -Режиссёр: Стивен Хилленбург / Stephen Hillenburg-Описание: Жизнерадостная морская Губка Боб живет в подводном райском городишке. Вы не найдете его на карте, так как кто же вам выдаст самое потрясающее место под водой! Здесь все по-другому: медуз коллекционируют как бабочек, морские водоросли, качающиеся из стороны в сторону, создают красивейшие музыкальные симфонии, а деликатесом считается крабовый бутерброд. Хотите узнать побольше о таком заманчивом местечке? Познакомьтесь поближе с Губкой Бобом Квадратные Штаны!-Сэмпл-Качество: DVDRip
Формат: AVI
Видео: 640x480 (1.33:1), 23.976 fps, XviD build 50, ~1200 kbps avg, 0.16 bit/pixel
Аудио: 48 kHz, MPEG Layer 3, 2 ch, ~192.00 kbps avg

Список серий

s7e01a - Tentacle-Vision
s7e01b - I Love Dancing
s7e02a - Growth Spout
s7e02b - Stuck In the Wringer
s7e03a - Someone's in the Kitchen with Sandy
s7e03b - The Inside Job
s7e04a - Greasy Buffoons
s7e04b - Model Sponge
s7e05a - Keep Bikini Bottom Beautiful
s7e05b - A Pal for Gary
s7e06a - Yours,Mine And Mine
s7e06b - Kracked Krabs
s7e07a - The Curse of Bikini Bottom
s7e07b - Squidward in Clarinetland
s7e08ab - SpongeBob's Last Stand
s7e09a - Back to the Past
s7e09b - The Bad Guy Club for Villains
s7e10a - A Day Without Tears
s7e10b - Summer Job
s7e11a - One Coarse Meal
s7e11b - Gary In Love
s7e12a - The Play's the Thing
s7e12b - Rodeo Daze
s7e13a - Gramma's Secret Recipe
s7e13b - The Cent of Money
s7e14a - The Monster Who Came to Bikini Bottom
s7e14b - Welcome to the Bikini Bottom Triangle
s7e15a - The Curse of the Hex
s7e15b - The Main Drain
s7e16a - Trenchbillies
s7e16b - Sponge-Cano!
s7e17ab - The Great Patty Caper
s7e18a - That Sinking Feeling
s7e18b - Karate Star
s7e19a - Buried in Time
s7e19b - Enchanted Tiki Dreams
s7e20a - The Abrasive Side
s7e20b - Earworm
s7e21a - Hide and Then What Happens?
s7e21b - Shellback Shenanigans
s7e22a - The Masterpiece
s7e22b - Whelk Attack
s7e23a - You Don't Know Sponge
s7e23b - Tunnel of Glove
s7e24a - Krusty Dogs
s7e24b - The Wreck of the Mauna Loa
s7e25a - New Fish in Town
s7e25b - Love That Squid
s7e26a - Big Sister Sam
s7e26b - Perfect Chemistry

Подробные технические данные

Общее
Формат : AVI
Формат/Информация : Audio Video Interleave
Размер файла : 110 Мбайт
Продолжительность : 11 м.
Общий поток : 1401 Кбит/сек
Программа кодирования : VirtualDubMod 1.5.10.3 | www.virtualdub-fr.org || (build 2550/release)
Библиотека кодирования : VirtualDubMod build 2550/release
Видео
Идентификатор : 0
Формат : MPEG-4 Visual
Профиль формата : Advanced Simple@L5
Параметр BVOP формата : 2
Параметр QPel формата : Нет
Параметр GMC формата : Без точки перехода
Параметр матрицы формата : Default (MPEG)
Идентификатор кодека : XVID
Идентификатор кодека/Подсказка : XviD
Продолжительность : 11 м.
Битрейт : 1200 Кбит/сек
Ширина : 640 пикселей
Высота : 480 пикселей
Соотношение сторон : 4:3
Частота кадров : 23,976 кадра/сек
Цветовое пространство : YUV
Субдискретизация насыщенности : 4:2:0
Битовая глубина : 8 бит
Тип развёртки : Прогрессивная
Метод сжатия : С потерями
Бит/(Пиксели*Кадры) : 0.163
Размер потока : 94,5 Мбайт (86%)
Библиотека кодирования : XviD 1.2.1 (UTC 2008-12-04)
Аудио
Идентификатор : 1
Формат : MPEG Audio
Версия формата : Version 1
Профиль формата : Layer 3
Идентификатор кодека : 55
Идентификатор кодека/Подсказка : MP3
Продолжительность : 11 м.
Вид битрейта : Постоянный
Битрейт : 192 Кбит/сек
Каналы : 2 канала
Частота : 48,0 КГц
Метод сжатия : С потерями
Размер потока : 15,1 Мбайт (14%)
Выравнивание : Соединение по промежуткам
Продолжительность промежутка : 42 мс. (1,00 видеокадр)
Время предзагрузки промежутка : 504 мс.
Библиотека кодирования : LAME3.99r
Настройки программы : -m s -V 4 -q 2 -lowpass 18.6 -b 192

Скриншоты

Вне форума [Профиль] [ЛС]
Показать сообщения:    
Ответить на тему

Текущее время: Сегодня 11:50

Часовой пояс: GMT + 3



Вы не можете начинать темы
Вы не можете отвечать на сообщения
Вы не можете редактировать свои сообщения
Вы не можете удалять свои сообщения
Вы не можете голосовать в опросах
Вы не можете прикреплять файлы к сообщениям
Вы не можете скачивать файлы