Сегодня идет свободное скачивание без начисления Download

Дневники Вампира / Vampire Diaries / Сезон: 3 Серии: 3 (22) (Маркос Сига) [2010, ужасы, драма, HDTVRip] rus sub

Ответить на тему
 
Автор
Сообщение

Varius ®

Пол:

Стаж: 8 лет 2 месяца

Сообщений: 2728

Откуда: Hell

Торрент-статистика

Пост 17-Сен-2011 12:51

[Цитировать]

Дневники Вампира / Vampire Diaries
Год выпуска: 2011
Страна: США, Alloy Entertainment
Жанр: ужасы, драма
Продолжительность: 00:41:54
Перевод: сутитры
Русские субтитры: Есть(notabenoid)
Режиссёр: Маркос Сига
-В ролях: Нина Добрев (Nina Dobrev), Пол Уэсли (Paul Wesley), Йан Сомерхалдер (Ian Somerhalder), Стивен Р. МакКуин (Steven R. McQueen), Катерина Грэхэм (Katerina Graham)
-Описание: Появление подлой Кэтрин в Мистик Фолс бросает свет на любовный треугольник между Стефаном, Дэймоном и Еленой. Она вновь начинает плести интриги между братьями Сальваторе, впутывая Елену Гилберт в события прошлых лет. Ей удаётся рассорить Стефана и Дэймона между собой. Мэр Локвуд — мёртв: странное приспособление подействовало на него и его сына Тайлера. Тайлеру удаётся спастись, а вот его отца ждала суровая участь — он сгорел, вместе с вампирами. Братья Сальваторе обеспокоены тем, что приспособление подействовало на ныне почившего Локвуда. Позже выясняется, что все мужчины в их роду унаследовали звериный ген, и являются оборотнями.-Качество: HDTVRip
Формат: AVI
Видео кодек: XviD
Аудио кодек: MP3
Видео: 624x352 (1.77:1), 23.976 fps, XviD build 50 ~1045 kbps avg, 0.20 bit/pixel
Аудио: 48 kHz, MPEG Layer 3, 2 ch, ~128.00 kbps avg
- -

MI

General
Complete name : I:\Закачки\The.Vampire.Diaries.S03E01.HDTV.XviD-2HD.avi
Format : AVI
Format/Info : Audio Video Interleave
File size : 350 MiB
Duration : 41mn 17s
Overall bit rate : 1 187 Kbps
Writing application : MEncoder SVN-r32669-4.3.2
Writing library : MPlayer
Video
Format : MPEG-4 Visual
Format profile : Streaming Video@L1
Format settings, BVOP : Yes
Format settings, QPel : No
Format settings, GMC : No warppoints
Format settings, Matrix : Default (H.263)
Muxing mode : Packed bitstream
Codec ID : XVID
Codec ID/Hint : XviD
Duration : 41mn 17s
Bit rate : 1 047 Kbps
Width : 624 pixels
Height : 352 pixels
Display aspect ratio : 16/9
Frame rate : 23.976 fps
Resolution : 24 bits
Colorimetry : 4:2:0
Scan type : Progressive
Bits/(Pixel*Frame) : 0.199
Stream size : 309 MiB (88%)
Writing library : XviD 1.2.1 (UTC 2008-12-04)
Audio
Format : MPEG Audio
Format version : Version 1
Format profile : Layer 3
Codec ID : 55
Codec ID/Hint : MP3
Duration : 41mn 17s
Bit rate mode : Variable
Bit rate : 127 Kbps
Channel(s) : 2 channels
Sampling rate : 48.0 KHz
Resolution : 16 bits
Stream size : 37.6 MiB (11%)
Alignment : Aligned on interleaves
Interleave, duration : 24 ms (0.58 video frame)
Interleave, preload duration : 521 ms

Скриншоты

       

Внимание! Раздача ведётся путём добавления новых серий!

Внимание! Раздача ведётся путём добавления новых серий; при каждом добавлении создётся новый торрент. Чтобы начать докачку новой серии, пользователям необходимо сделать следующее: (1) остановить скачивание, (2) удалить старый торрент у себя из клиента (старые серии удалять не надо), (3) скачать новый торрент и запустить его у себя в клиенте вместо старого, при этом указать клиенту путь в старую папку куда и должно происходить скачивание новых серий.
Ваш клиент при этом должен произвести хеширование (проверку) старой папки (если не производит сам - помогите ему сделать это), и будет докачивать только те серии которых у вас ещё нет. Старые серии при этом не удаляются, а продолжают раздаваться!
Eсли вы уже удалили старые серии, то предотвратить повторную закачку старых серий можно, отжав галочку в соответсвующих местах при запуске нового торрента.
-

_________________

Создавая "Новую папку", не считайте себя Создателем - это право Вам дано Админом




Последний раз редактировалось: Varius (2011-10-01 21:42), всего редактировалось 3 раз(а)
Вне форума [Профиль] [ЛС]
Похожие темы
Форум Тема Автор Торрент Отв. Посл. сообщение
./templates/default/images/folder_dl.gif Обучающее видео Каждодневная растяжка Omen
0 | 1

0 | 700

13

2014-05-06 14:23
Omen Последнее
./templates/default/images/folder_dl.gif Обучающая и научно-популярная литература Энтони Роббинс | PERSONAL POWER II: 30-дневная система (2014) [MP3,PDF] }{@R0N
1 | 0

0 | 1067

7

2016-11-19 21:37
}{@R0N Последнее
Показать сообщения:    
Ответить на тему

Текущее время: Сегодня 13:21

Часовой пояс: GMT + 3



Вы не можете начинать темы
Вы не можете отвечать на сообщения
Вы не можете редактировать свои сообщения
Вы не можете удалять свои сообщения
Вы не можете голосовать в опросах
Вы не можете прикреплять файлы к сообщениям
Вы не можете скачивать файлы