Сегодня идет свободное скачивание без начисления Download

Дневники Вампира / Vampire Diaries / Сезон: 3 / Серии: 1-3 (22) (Маркос Сига) [2011, фэнтези, романтическая драма, HDTVRip] DVO [Кубик в Кубе]

Ответить на тему
 
Автор
Сообщение

Varius ®

Пол:

Стаж: 8 лет 4 месяца

Сообщений: 2715

Откуда: Hell

Торрент-статистика

Пост 17-Сен-2011 12:36

[Цитировать]

Дневники Вампира / Vampire Diaries, 3 сезон, серия 1-3 (22)
Год выпуска: 2011
Страна: USA
Канал:
Жанр: фэнтези, романтическая драма
Продолжительность: ~00:42
Перевод: Профессиональный (двухголосый, закадровый) (озвучка - студия "Кубик в Кубе", перевод - Мекс)
Релиз: RG Translators

Русские субтитры: есть (Перевод: Мекс, RG Translators)
Английские субтитры: есть

Режиссёр: Маркос Сига
В ролях: Нина Добрев, Пол Уэсли, Йен Сомерхалдер, Катерина Грэхэм, Стивен Р. МакКуин, Бенджамин Эйрс, Стив Белфорд, Сара Каннинг, Кайла Юэлл, Марси Т. Хаус
Описание: Спустя четыре месяца после трагической автокатастрофы, которая унесла жизни родителей, 17-летняя Елена Гилберт (Нина Добрев) и её 15-летний брат Джереми (Стивен МакКуин) все еще пытаются справиться с постигшим их горем и двигаться дальше. Елена всегда была звездой школы, красивая и популярная, она была вовлечена в жизни друзей и школы, но сейчас она пытается скрыть свою печаль от мира. С началом учебного года, Елена и её подруги очарованы красивым и таинственным студентом, Стефаном Сальваторе (Пол Уэсли). Стефана и Елену сразу же тянет друг к другу, но она не знает, что Стефан - вампир, который изо всех сил старается жить мирно среди людей, в то время, как его брат Дэймон (Ян Сомерхалдер) является воплощением насилия и жестокости. И теперь эти два брата-вампира, один плохой, другой хороший, начинают войну за душу Елены и души её друзей, родственников и всех жителей маленького городка Мистик Фоллс в штате Вирджиния.


Качество: HDTVRip
Формат: AVI
Видео кодек: XviD
Аудио кодек: MP3
Видео: 624x352 (1.77:1), 23.976 fps, XviD build 50 ~1000 kbps avg, 0.20 bit/pixel
Аудио 1 (Кубик в Кубе): 48 kHz, MPEG Layer 3, 2 ch, ~256.00 kbps avg
Аудио 2 (оригинал): 48 kHz, MPEG Layer 3, 2 ch, ~128.00 kbps avg

Media Info

General
Complete name : D:\Mekc torrents\Vampire Diaries (Season 3, DVO, sub)\The.Vampire.Diaries.S03E01[Kubik_v_Kube].avi
Format : AVI
Format/Info : Audio Video Interleave
File size : 427 MiB
Duration : 41mn 17s
Overall bit rate : 1 447 Kbps
Writing application : VirtualDubMod 1.5.10.2 (build 2540/release)
Writing library : VirtualDubMod build 2540/release
Video
ID : 0
Format : MPEG-4 Visual
Format profile : Advanced Simple@L5
Format settings, BVOP : 1
Format settings, QPel : No
Format settings, GMC : No warppoints
Format settings, Matrix : Default (H.263)
Muxing mode : Packed bitstream
Codec ID : XVID
Codec ID/Hint : XviD
Duration : 41mn 17s
Bit rate : 1 047 Kbps
Width : 624 pixels
Height : 352 pixels
Display aspect ratio : 16:9
Frame rate : 23.976 fps
Color space : YUV
Chroma subsampling : 4:2:0
Bit depth : 8 bits
Scan type : Progressive
Compression mode : Lossy
Bits/(Pixel*Frame) : 0.199
Stream size : 309 MiB (72%)
Writing library : XviD 1.2.1 (UTC 2008-12-04)
Audio #1
ID : 1
Format : MPEG Audio
Format version : Version 1
Format profile : Layer 3
Codec ID : 55
Codec ID/Hint : MP3
Duration : 41mn 17s
Bit rate mode : Constant
Bit rate : 256 Kbps
Channel(s) : 2 channels
Sampling rate : 48.0 KHz
Compression mode : Lossy
Stream size : 75.6 MiB (18%)
Alignment : Aligned on interleaves
Interleave, duration : 42 ms (1.00 video frame)
Interleave, preload duration : 504 ms
Audio #2
ID : 2
Format : MPEG Audio
Format version : Version 1
Format profile : Layer 3
Mode : Joint stereo
Codec ID : 55
Codec ID/Hint : MP3
Duration : 41mn 17s
Bit rate mode : Variable
Bit rate : 128 Kbps
Channel(s) : 2 channels
Sampling rate : 48.0 KHz
Compression mode : Lossy
Stream size : 37.6 MiB (9%)
Alignment : Aligned on interleaves
Interleave, duration : 24 ms (0.58 video frame)
Interleave, preload duration : 521 ms
* * * * *Новые серии

Список серий, их дата выхода и синопсис

Серия 1: The Birthday
Дата выхода в США: 16.09.2011. Дата появления перевода/озвучки: 1-2 дня
Статус: вышла, скоро будет озвучена.
Синопсис:
ЭТО МОЙ ПРАЗДНИК — Утром, в восемнадцатый день рождения Елены, Кэролайн занимается приготовлениями к вечеринке, но Елена занята лишь тем, что ищет любую подсказку, которая позволит ей найти Стэфана. Дэймон также ищет Стэфана, при этом защищая Елену и не позволяя ей делать ничего, что могло бы привлечь внимание Клауса. В то же время, Клаус и Стэфан заняты преследованием оборотня по имени Рей Саттон. Работая теперь вместе с Мэттом в Мистик Гриле, Джереми пытается понять, почему он продолжает видеть призраков Викки и Анны с тех пор, как Бонни своей магией вернула его к жизни. Тем временем, Аларик, все еще оправляясь после смерти Дженны, старается приглядывать за Еленой и Джереми. И, в заключение, Кэролайн и Тайлер сталкиваются с новым и неожиданным испытанием.
Серия 2: The Hybrid
Дата выхода в США: 23.09.2011. Дата появления перевода/озвучки: 1-2 дня
Статус: еще не вышла
Синопсис:
НОВЫЙ ПОРЯДОК – Клаус начинает воплощать в жизнь план, благодаря которому он получит еще больше власти, но даже с вынужденной помощью оборотня по имени Рэй Саттон, все идет не совсем так, как планировал Клаус. Дэймон и Аларик неохотно следуют новой стратегии Елены по поиску Стэфана, и в итоге это приводит к тому, что Дэймон участвует в опасной схватке с неожиданным врагом. Джереми обращается за помощью к Мэтту для того, чтобы понять, что призраки прошлого хотят от него. Тайлер, не зная, что Кэролайн нуждается в его помощи, ругается со своей матерью.
Серия 3: The End of Affair
Дата выхода в США: 30.09.2011. Дата появления перевода/озвучки: 1-2 дня
Статус: еще не вышла
Синопсис:
БУЙНЫЕ ДВАДЦАТЫЕ – Клаус и Стэфан приезжают в Чикаго, где Стэфан воссоединяется с вампиршей, чей интерес к нему не остыл за многие десятилетия. Флешбэк уносит зрителей в 1920-ые годы, являющие собой шокирующее прошлое Стэфана. Дэймон получает подсказку о местонахождении Стэфана и Клауса из неожиданного источника, и они с Еленой отправляются по следу. В Мистик Фоллс Тайлер беспокоится о Кэролайн и обращается за помощью к шерифу Форбс.
Серия 4: Disturbing Behavior
Дата выхода в США: 07.10.2011. Дата появления перевода/озвучки: 1-2 дня
Статус: еще не вышла
Синопсис:
Пока нет.
Серия 5: The Reckoning
Дата выхода в США: 14.10.2011. Дата появления перевода/озвучки: 1-2 дня
Статус: еще не вышла
Синопсис:
Пока нет.
-

Внимание! Раздача ведётся путём добавления новых серий

При очередном добавлении новой серии, создаётся новый торрент. Для того, чтобы скачать новую серию сезона, Вам необходимо сделать следующее:
1. Удалить старый торрент (лишь торрент, серии удалять не нужно),
2. Скачать новый торрент-файл и запустить его. ОБЯЗАТЕЛЬНО при этом указать клиенту путь в старую папку, где уже находятся предыдущие серии.
3. Ваш клиент производит хеширование старой папки и будет докачивать только те серии и субтитры, которых у Вас ещё нет. Старые серии при этом не удаляются.
Как закачать отдельный файл:
http:///*spam*//forum/viewtopic.php?t=609808

Скриншоты

       

_________________

Создавая "Новую папку", не считайте себя Создателем - это право Вам дано Админом




Последний раз редактировалось: Varius (2011-10-01 21:47), всего редактировалось 3 раз(а)
Вне форума [Профиль] [ЛС]
Похожие темы
Форум Тема Автор Торрент Отв. Посл. сообщение
./templates/default/images/folder_dl.gif Обучающее видео Олег Астанин | 200 гарантированных посетителей на блог или сайт ежедневно! [2012] Screener Omen
1 | 0

0 | 958

20

2013-04-07 13:57
Omen Последнее
./templates/default/images/folder_dl.gif Обучающее видео Каждодневная растяжка Omen
0 | 1

0 | 742

13

2014-05-06 14:23
Omen Последнее
./templates/default/images/folder_dl.gif Обучающая и научно-популярная литература Энтони Роббинс | PERSONAL POWER II: 30-дневная система (2014) [MP3,PDF] }{@R0N
1 | 0

0 | 1144

7

2016-11-19 21:37
}{@R0N Последнее
Показать сообщения:    
Ответить на тему

Текущее время: Сегодня 12:07

Часовой пояс: GMT + 3



Вы не можете начинать темы
Вы не можете отвечать на сообщения
Вы не можете редактировать свои сообщения
Вы не можете удалять свои сообщения
Вы не можете голосовать в опросах
Вы не можете прикреплять файлы к сообщениям
Вы не можете скачивать файлы