Сегодня идет свободное скачивание без начисления Download

Дневники вампира / The Vampire Diaries Сезон 3 эпизод 3(22)(Маркос Сига)[2011 г., ужасы, драма, WEB-DL 720p](Кубик в Кубе)

Ответить на тему
 
Автор
Сообщение

Varius ®

Пол:

Стаж: 8 лет 1 месяц

Сообщений: 2754

Откуда: Hell

Торрент-статистика

Пост 17-Сен-2011 12:28

[Цитировать]

Дневники вампира / The Vampire Diaries
Год выпуска: 2011
Страна: США, Alloy Entertainment
Жанр: ужасы, драма
Продолжительность: 00:41:54
Перевод: Профессиональный двухголосый закадровый(Кубик в Кубе)
Режиссер: Маркос Сига
-В ролях:
Нина Добрев (Nina Dobrev), Пол Уэсли (Paul Wesley), Йан Сомерхалдер (Ian Somerhalder), Стивен Р. МакКуин (Steven R. McQueen), Катерина Грэхэм (Katerina Graham)

Описание:
Елена — «золотая» девочка, она привыкла, что мальчики стоят перед ней на коленях. Стефан — темноволосый красавец, он никогда не смотрит на солнце и прячет глаза за темными очками. Он — единственный, на кого чары Елены не действуют, хотя он и пытается защитить ее от мрачных тайн своего прошлого. Дэймон — его сексуальный и жестокий брат, он всю жизнь посвятил мести Стефану, когда-то предавшему его. Сейчас ему нужна Елена и он пойдет на все, чтобы добиться ее тела. И заполучить ее душу. Дневники вампира: история прекрасной Елены, по воле рока ставшей причиной смертельной схватки братьев-вампиров.
-Качество: WEB-DL 720p
Формат: MKV
Видео кодек: H.264
Аудио кодек: AC3
Видео: AVC at 4 065 Kbps 1280 x 720 (1.778) at 23.976 fps 0.184 bit/pixel
Audio Rus: AC-3 at 384 Kbps 6 channels, 48.0 KHz
Audio Eng: AC-3 at 384 Kbps 6 channels, 48.0 KHz
-Релиз:
Озвучка: Кубик в Кубе
Перевод: Мекс
Работа со звуком: alex7691
Постер и баннер: Джарлакс2009
Подготовка видео: ЛП
- -

MI

General
Complete name : O:\Вампиры\Vampire Diaries Season 3 WEB-DL 720p Kybik v Kybe\The.Vampire.Diaries.s02e01.720p.rus.eng.Kybik.v.Kybe.mkv
Format : Matroska
File size : 1.43 GiB
Duration : 41mn 42s
Overall bit rate : 4 924 Kbps
Encoded date : UTC 2010-09-10 22:43:30
Writing application : mkvmerge v2.9.5 ('Tu es le seul') built on Jun 7 2009 11:07:07
Writing library : libebml v0.7.7 + libmatroska v0.8.1
Video
ID : 1
Format : AVC
Format/Info : Advanced Video Codec
Format profile : High@L3.1
Format settings, CABAC : No
Format settings, ReFrames : 2 frames
Muxing mode : Container profile=Unknown@3.1
Codec ID : V_MPEG4/ISO/AVC
Duration : 41mn 40s
Bit rate : 4 058 Kbps
Width : 1 280 pixels
Height : 720 pixels
Display aspect ratio : 16:9
Frame rate : 23.976 fps
Resolution : 8 bits
Colorimetry : 4:2:0
Scan type : Progressive
Bits/(Pixel*Frame) : 0.184
Stream size : 1.18 GiB (82%)
Language : English
Color primaries : BT.709-5, BT.1361, IEC 61966-2-4, SMPTE RP177
Transfer characteristics : BT.709-5, BT.1361
Matrix coefficients : BT.709-5, BT.1361, IEC 61966-2-4 709, SMPTE RP177
Audio #1
ID : 2
Format : AC-3
Format/Info : Audio Coding 3
Codec ID : A_AC3
Duration : 41mn 42s
Bit rate mode : Constant
Bit rate : 384 Kbps
Channel(s) : 6 channels
Channel positions : Front: L C R, Surround: L R, LFE
Sampling rate : 48.0 KHz
Stream size : 115 MiB (8%)
Language : Russian
Audio #2
ID : 3
Format : AC-3
Format/Info : Audio Coding 3
Codec ID : A_AC3
Duration : 41mn 42s
Bit rate mode : Constant
Bit rate : 384 Kbps
Channel(s) : 6 channels
Channel positions : Front: L C R, Surround: L R, LFE
Sampling rate : 48.0 KHz
Stream size : 115 MiB (8%)
Language : English

Список серий

    Альтернативные фотографии




    Скриншоты

         

    Внимание! Раздача ведётся путём добавления новых серий!

    Внимание! Раздача ведётся путём добавления новых серий; при каждом добавлении создётся новый торрент. Чтобы начать докачку новой серии, пользователям необходимо сделать следующее: (1) остановить скачивание, (2) удалить старый торрент у себя из клиента (старые серии удалять не надо), (3) скачать новый торрент и запустить его у себя в клиенте вместо старого, при этом указать клиенту путь в старую папку куда и должно происходить скачивание новых серий.
    Ваш клиент при этом должен произвести хеширование (проверку) старой папки (если не производит сам - помогите ему сделать это), и будет докачивать только те серии которых у вас ещё нет. Старые серии при этом не удаляются, а продолжают раздаваться!
    Eсли вы уже удалили старые серии, то предотвратить повторную закачку старых серий можно, отжав галочку в соответсвующих местах при запуске нового торрента.

    _________________

    Создавая "Новую папку", не считайте себя Создателем - это право Вам дано Админом




    Последний раз редактировалось: Varius (2011-10-01 21:55), всего редактировалось 3 раз(а)
    Вне форума [Профиль] [ЛС]
    Показать сообщения:    
    Ответить на тему

    Текущее время: Сегодня 14:30

    Часовой пояс: GMT + 3



    Вы не можете начинать темы
    Вы не можете отвечать на сообщения
    Вы не можете редактировать свои сообщения
    Вы не можете удалять свои сообщения
    Вы не можете голосовать в опросах
    Вы не можете прикреплять файлы к сообщениям
    Вы не можете скачивать файлы