Сегодня идет свободное скачивание без начисления Download

Запретная любовь / Ask-I Memnu (2010) SATRip [2 сезон: 1-41 (39-79 серии из 79)]

Ответить на тему
 
Автор
Сообщение

UndegraundMen ®

Стаж: 5 лет 8 месяцев

Сообщений: 25860

Торрент-статистика

Пост 28-Авг-2013 05:00

[Цитировать]

Запретная любовь / Ask-I Memnu (2010) SATRip [2 сезон: 1-41 (39-79 серии из 79)] - Год выпуска: 2010
Жанр: Семейный, Мелодрама, Драма
Перевод: Двуголосый закадровый, профессиональный
Озвучка / Автор перевода: ТОО "ПРИМ" (Казахстан)
Вид субтитров: Отсутствуют

Режиссер: Хилаль Сарал
Актеры: Берен Саат, Кыванч Татлытуг, Сельчуг Йонтем, Нур Айсан, Хазал Кайя, Эда Йозеркан, Илькер Кызмаз, Зеррин Текиндор, Рана Джаббар, Батухан Караджакайя, Баран Акбулут, Гюльсен Тинджер, Фатма Каранфил, Пелин Ермиш, Бурчин Оралоглу, Еврен Дуйал, Реджеп Актуг, Зеррин Арбаш, Зеррин Нишанджы, Уфук Каплан
Описание фильма:
«Запретная любовь» - эта картина, повествующая о запретной любви молодых людей – Бихтер и Бехлюля, стала лучшим произведением турецких кинематографистов за последний год. Аднан, уважаемый и богатый человек в Стамбуле. Он с семьей живет в одном из знаменитейших особняков в Стамбуле. Однажды в его жизни появится молодая и красивая Бихтер, девушка которая совсем недавно потеряла отца, рядом с ним чувствует себя защищенной и опирается на его надежное плечо. Сыгранна свадьба. Но,... у судьбы свои законы, и на пути Бихтер появляется - Бехлюль, родной племянник ее мужа. Искра чувства зажглась у обоих при первой же встрече. Бехлюль и Бихтер непреодолимо влечет друг к другу. Их запретная любовь по-разному повлияет на судьбу каждого из членов этой семьи.

Дополнительная информация:

Озвучка сериала - ТОО "ПРИМ" (Казахстан). Спасибо за русские звуковые дорожки - turok1990. По просьбам пользователей, в релиз добавлена турецкая звуковая дорожка.
Продолжительность: 41 x ~ 01:26:24
Качество видео: SATRip
Сэмпл: Скачать

MediaInfo

Формат : AVI
Формат/Информация : Audio Video Interleave
Размер файла : 1,24 Гбайт
Продолжительность : 1 ч. 28 м.
Общий поток : 2009 Кбит/сек
Программа кодирования : VirtualDubModRus 1.5.10.2 (build 2542/release)
Библиотека кодирования : VirtualDubMod build 2542/release
Видео
Идентификатор : 0
Формат : MPEG-4 Visual
Профиль формата : Simple@L5
Параметр BVOP формата : Нет
Параметр QPel формата : Нет
Параметр GMC формата : Без точки перехода
Параметр матрицы формата : Default (H.263)
Идентификатор кодека : XVID
Идентификатор кодека/Подсказка : XviD
Продолжительность : 1 ч. 28 м.
Битрейт : 1704 Кбит/сек
Ширина : 640 пикселей
Высота : 480 пикселей
Соотношение сторон : 4:3
Частота кадров : 25,000 кадров/сек
Цветовое пространство : YUV
Субдискретизация насыщенности : 4:2:0
Битовая глубина : 8 бит
Тип развёртки : Прогрессивная
Метод сжатия : С потерями
Бит/(Пиксели*Кадры) : 0.222
Размер потока : 1,05 Гбайт (85%)
Библиотека кодирования : XviD 62
Аудио #1
Идентификатор : 1
Формат : MPEG Audio
Версия формата : Version 1
Профиль формата : Layer 3
Идентификатор кодека : 55
Идентификатор кодека/Подсказка : MP3
Продолжительность : 1 ч. 28 м.
Вид битрейта : Постоянный
Битрейт : 128 Кбит/сек
Каналы : 2 канала
Частота : 48,0 КГц
Метод сжатия : С потерями
Размер потока : 81,1 Мбайт (6%)
Выравнивание : Соединение по промежуткам
Продолжительность промежутка : 40 мс. (1,00 видеокадр)
Время предзагрузки промежутка : 504 мс.
Аудио #2
Идентификатор : 2
Формат : MPEG Audio
Версия формата : Version 1
Профиль формата : Layer 3
Режим : Joint stereo
Расширение режима : MS Stereo
Идентификатор кодека : 55
Идентификатор кодека/Подсказка : MP3
Продолжительность : 1 ч. 28 м.
Вид битрейта : Постоянный
Битрейт : 160 Кбит/сек
Каналы : 2 канала
Частота : 44,1 КГц
Метод сжатия : С потерями
Размер потока : 101 Мбайт (8%)
Выравнивание : Соединение по промежуткам
Продолжительность промежутка : 26 мс. (0,65 видеокадр)
Время предзагрузки промежутка : 522 мс.
Видеокодек: Xvid
Битрейт видео: ~ 1504 Кбит/с
Размер кадра: 640x480
Аудиокодек: MP3
Аудио #1: Русский (MP3, 2 ch, 128 Кбит/с)
Аудио #2: турецкий (MP3, 2 ch, 128 Кбит/с)
Скриншоты:
       
Вне форума [Профиль] [ЛС]
Похожие темы
Форум Тема Автор Торрент Отв. Посл. сообщение
./templates/default/images/folder_dl.gif Обучающая и научно-популярная литература Игорь Окишев | Запрещенная Реальность (2017) [MP3] }{@R0N
1 | 0

0 | 729

5

2017-12-28 23:01
}{@R0N Последнее
Показать сообщения:    
Ответить на тему

Текущее время: Сегодня 11:51

Часовой пояс: GMT + 3



Вы не можете начинать темы
Вы не можете отвечать на сообщения
Вы не можете редактировать свои сообщения
Вы не можете удалять свои сообщения
Вы не можете голосовать в опросах
Вы не можете прикреплять файлы к сообщениям
Вы не можете скачивать файлы