Today is a free download without charge Download

Suzanne Vega - 99.9 F (1992) [FLAC 2.0 24/96|image (Vinyl-Rip)]

Reply to topic
 
Author
Message

UndegraundMen ®

Longevity: 7 years 7 months

Posts: 25145

Торрент-статистика

Post 27-Aug-2013 17:02

[Quote]

Suzanne Vega - 99.9 F°(1992)- Год: 1992
Лейбл: A&M (540 012-1)
Жанр: Singer/Songwriter
Продолжительность: 00:37:11
Кодек: FLAC 2.0 24/96
Тип рипа: image+.cue
Треклист:
01. Rock in This Pocket (Song of David) (3:29)
02. Blood Makes Noise (2:25)
03. In Liverpool (4:41)
04. 99.9 F° (3:12)
05. Blood Sings (3:19)
06. Fat Man & Dancing Girl (2:18)
07. (If You Were) In My Movie (3:03)
08. As a Child (2:56)
09. Bad Wisdom (3:21)
10. When Heroes Go Down (1:55)
11. As Girls Go (3:23)
12. Song of Sand (3:09)

Дополнительная информация:

Свежеприобретенная винилка, через musicstack подцепил у одного японца. Пересылка была дороже. Пластинка очень редкая, реально редкая. Но оформление куцее, может вкладку потеряли, а может и не было вовсе. Поэтому, да и просто для полноты сосканил тексты с сидишки.
Состояние диска с учетом возраста вполне приличное - между nm- и ex+.
Тракт: Orotofon Samba -> Pro-Ject RPM 1.3 -> Lehmann Audio Black Cube SE -> ESI Juli@ (интерконнекты QED Quenex 2).
Снято Adobe Audition CS6, из постобработки - убрал вопиющие щелчки.
И еще - столик изолирован от движка насколько это возможно, скорость регулируется Pro-Jectовской приблубой Speed Box II.

Отчёт MediaInfo:

Код:
Общее
Полное имя                               : E:\Music - vinyl collection\v\Vega, Suzanne\1992-99.9 F\Suzanne Vega - 99.9 F.flac
Формат                                   : FLAC
Формат/Информация                        : Free Lossless Audio Codec
Размер файла                             : 714 Мбайт
Продолжительность                        : 37 м.
Режим общего битрейта                    : Переменный
Общий поток                              : 2686 Кбит/сек
Дата записи                              : 2013-08-26T21:25:09-04:00
Аудио
Формат                                   : FLAC
Формат/Информация                        : Free Lossless Audio Codec
Продолжительность                        : 37 м.
Вид битрейта                             : Переменный
Битрейт                                  : 2686 Кбит/сек
Каналы                                   : 2 канала
Частота                                  : 96,0 КГц
Битовая глубина                          : 24 бит
Размер потока                            : 714 Мбайт (100%)
Библиотека кодирования                   : libFLAC 1.2.1 (UTC 2007-09-17)

Отчёт Dynamic Range Meter:

Код:
foobar2000 1.2.9 / Dynamic Range Meter 1.1.1
log date: 2013-08-27 07:02:41
--------------------------------------------------------------------------------
Analyzed: Suzanne Vega / 99.9 F
--------------------------------------------------------------------------------
DR         Peak         RMS     Duration Track
--------------------------------------------------------------------------------
DR13      -3.44 dB   -18.51 dB      3:29 01-Rock in This Pocket (Song of David)
DR11      -3.87 dB   -18.04 dB      2:25 02-Blood Makes Noise
DR13      -3.43 dB   -20.41 dB      4:41 03-In Liverpool
DR14      -5.82 dB   -22.09 dB      3:12 04-99.9 F
DR13      -8.63 dB   -25.95 dB      3:19 05-Blood Sings
DR11      -4.78 dB   -21.25 dB      2:18 06-Fat Man & Dancing Girl
DR13      -3.99 dB   -19.71 dB      3:03 07-(If You Were) In My Movie
DR14      -2.23 dB   -19.75 dB      2:56 08-As a Child
DR14      -5.42 dB   -23.23 dB      3:21 09-Bad Wisdom
DR14      -2.70 dB   -18.40 dB      1:55 10-When Heroes Go Down
DR13      -3.50 dB   -18.33 dB      3:23 11-As Girls Go
DR14      -8.77 dB   -27.12 dB      3:09 12-Song of Sand
--------------------------------------------------------------------------------
Number of tracks:  12
Official DR value: DR13
Samplerate:        96000 Hz
Channels:          2
Bits per sample:   24
Bitrate:           2686 kbps
Codec:             FLAC
================================================================================

Спектрограмма:

Слушаем и смотрим:

Время раздачи: 24/7 до пяти скачавших, канал дохлый, терпеливо ждем.
Other forum [Profile] [PM]
Display posts from previous:    
Reply to topic

The time now is: Today 17:22

All times are GMT + 3 Hours



You cannot post new topics in this forum
You cannot reply to topics in this forum
You cannot edit your posts in this forum
You cannot delete your posts in this forum
You cannot vote in polls in this forum
You cannot attach files in this forum
You cannot download files in this forum