Сегодня идет свободное скачивание без начисления Download

Гриффины / Family Guy / Сезон: 9 / Серии: 1-18 из 18 (Сэт Макфарлейн / Seth Macfarlane) [2010-2011, мультсериал, комедия, пародия, WEB-DL 720p] 2xMVO (Filiza Studio, 2x2) + Eng

Ответить на тему
 
Автор
Сообщение

Omen ®

Стаж: 4 года 10 месяцев

Сообщений: 190643

Торрент-статистика

Пост 25-Авг-2013 20:30

[Цитировать]

Гриффины / Family Guy Страна: США
Жанр: мультсериал, комедия, пародия
Продолжительность: 00:49:07 - 1-я серия, 00:43:44 - 7-я серия, 00:56:35 - 18-я серия, 00:22:00 - все остальные серии
Год выпуска: 2010-2011
Перевод 1: профессиональный (многоголосый закадровый) - Filiza Studio (в 18-й серии присутствует незапиканный мат!)
Перевод 2: профессиональный (многоголосый закадровый) - 2x2 (на места, которые 2x2 не показал, вставлены куски из английской дорожки)
Перевод 3: профессиональный (многоголосый закадровый) - 20 век Фокс СНГ (только в 18-й серии)
Русские субтитры: есть (частичные, на места, которые 2x2 не показал)
Режиссёр: Сэт Макфарлейн / Seth Macfarlane
Роли озвучивали: Сет МакФарлейн, Алекс Борштейн, Сет Грин, Мила Кунис, Майк Генри и другие.
Описание: "Гриффины" (Family Guy) - анимационное ТВ-Шоу, созданное Сетом МакФерлайном (Seth MacFarlane) для телеканала FOX. Как нетрудно догадаться, главными героями шоу является семейка Гриффинов: тупой, но полный сумашедших идей, составляющих львиную долю шуток сериала, отец семейства Питер; его любящя и терпеливая жена Лойс, всеми силами пытающаяся превратить Гриффинов в нормальную семью; их интеллектуально развитый не по годам, вынашивающий идею мирового господства младший сын Стьюи; дочь-ботаник, обречённая из-за этого на одиночество и непонимание как в школе так и дома, Мэг; и 13-ти летний отсталый в развитии лет на 10, сын Крис. Также полноценным членом семьи является пёс Брайн - склонный к меланхолии эстет, спокойно наблюдающий с бокалом вина в лапе над приключениями Питера и остальных членов семьи (и это при всём притом, что остальные собаки в сериале не являются очеловеченными).
Семпл: http://multi-up.com/897097
Качество: WEB-DL 720p
Формат: MKV
Видео: MPEG4 Video (H264) 1280x720 23.98fps 4200Kbps
Аудио 1: Dolby AC3 48000Hz 6ch 384Kbps - Filiza Studio
Аудио 2: Dolby AC3 48000Hz 2ch 192Kbps - 2x2
Аудио 3: Dolby AC3 48000Hz 6ch 384Kbps - английская дорожка
Субтитры: русские (на места, которые 2x2 не показал)

Список серий

9 сезон
01. And then there were fewer
02. Excellence in Broadcasting
03. Welcome back Carter
04. Halloween on Spooner Street
05. Baby You Knock Me Out
06. Brian writes a bestseller
07. Road to North Pole
08. New Kidney in Town
09. And I'm Joyce Kinney
10. Friends of Peter G
11. German Guy
12. The Hand That Rocks the Wheelchair
13. Trading Places
14. Tiegs for You
15. Brothers & Sisters
16. The Big Bang Theory
17. Foreign Affairs
18. It's A Trap

Подробные технические данные

C:\Family Guy season 9 720p\Family Guy 9x07 Road to North Pole.mkv General Unique ID : 219629443625370287002378115495092496864 (0xA53B179B624A74098C254F09D73729E0) Complete name : C:\Family Guy season 9 720p\Family Guy 9x07 Road to North Pole.mkv Format : Matroska Format version : Version 4 / Version 2 File size : 1.51 GiB Duration : 43mn 44s Overall bit rate : 4 958 Kbps Encoded date : UTC 2013-08-24 09:53:21 Writing application : mkvmerge v6.0.0 ('Coming Up For Air') built on Jan 20 2013 09:52:00 Writing library : libebml v1.3.0 + libmatroska v1.4.0 Video #1 ID : 1 Format : AVC Format/Info : Advanced Video Codec Format profile : High@L3.1 Format settings, CABAC : No Format settings, ReFrames : 2 frames Codec ID : V_MPEG4/ISO/AVC Duration : 43mn 44s Bit rate : 3 899 Kbps Width : 1 280 pixels Height : 720 pixels Display aspect ratio : 16:9 Frame rate mode : Constant Frame rate : 23.976 fps Color space : YUV Chroma subsampling : 4:2:0 Bit depth : 8 bits Scan type : Progressive Bits/(Pixel*Frame) : 0.176 Stream size : 1.19 GiB (79%) Language : English Default : Yes Forced : No Color primaries : BT.709 Transfer characteristics : BT.709 Matrix coefficients : BT.709 Audio #2 ID : 2 Format : AC-3 Format/Info : Audio Coding 3 Mode extension : CM (complete main) Format settings, Endianness : Big Codec ID : A_AC3 Duration : 43mn 44s Bit rate mode : Constant Bit rate : 384 Kbps Channel(s) : 6 channels Channel positions : Front: L C R, Side: L R, LFE Sampling rate : 48.0 KHz Bit depth : 16 bits Compression mode : Lossy Stream size : 120 MiB (8%) Title : FiliZa Studio Language : Russian Default : Yes Forced : No Audio #3 ID : 3 Format : AC-3 Format/Info : Audio Coding 3 Mode extension : CM (complete main) Format settings, Endianness : Big Codec ID : A_AC3 Duration : 43mn 44s Bit rate mode : Constant Bit rate : 192 Kbps Channel(s) : 2 channels Channel positions : Front: L R Sampling rate : 48.0 KHz Bit depth : 16 bits Compression mode : Lossy Stream size : 60.1 MiB (4%) Title : 2x2 Language : Russian Default : No Forced : No Audio #4 ID : 4 Format : AC-3 Format/Info : Audio Coding 3 Mode extension : CM (complete main) Format settings, Endianness : Big Codec ID : A_AC3 Duration : 43mn 44s Bit rate mode : Constant Bit rate : 384 Kbps Channel(s) : 6 channels Channel positions : Front: L C R, Side: L R, LFE Sampling rate : 48.0 KHz Bit depth : 16 bits Compression mode : Lossy Delay relative to video : 10ms Stream size : 120 MiB (8%) Language : English Default : No Forced : No Text #5 ID : 5 Format : UTF-8 Codec ID : S_TEXT/UTF8 Codec ID/Info : UTF-8 Plain Text Language : Russian Default : No Forced : No

Скриншоты

Вне форума [Профиль] [ЛС]
Показать сообщения:    
Ответить на тему

Текущее время: Сегодня 08:47

Часовой пояс: GMT + 3



Вы не можете начинать темы
Вы не можете отвечать на сообщения
Вы не можете редактировать свои сообщения
Вы не можете удалять свои сообщения
Вы не можете голосовать в опросах
Вы не можете прикреплять файлы к сообщениям
Вы не можете скачивать файлы