Сегодня идет свободное скачивание без начисления Download

Уилфред / Wilfred (Сезон 3, полный, 13 серий) [Кубик в Кубе] (Рэндолл Айнхорн / Randall Einhorn) [2013 г.] (Комедия) [WEB-DLRip] (MVO) [обновляемая]

Ответить на тему
 
Автор
Сообщение

Omen ®

Стаж: 5 лет 10 месяцев

Сообщений: 184329

Торрент-статистика

Пост 25-Авг-2013 17:31

[Цитировать]

Уилфред / Wilfred - Русское название: Уилфред
Оригинальное название: Wilfred
Страна: США
Год выпуска: 2013
Жанр: Комедия-Озвучка: Студия
Перевод: Многоголосый закадровый, профессиональный-Режиссер: Рэндолл Айнхорн / Randall Einhorn, Виктор Нелли мл. / Victor Nelli Jr.
В главных ролях:
Элайджа Вуд, Джейсон Гэнн, Фиона Габелманн, Дориан Браун, Эл Сапьенза, Рэйчел Стерлинг, Марк Энтони Лопез, Мэттью Каминский ...-Описание фильма:
Сюжет строится вокруг молодого человека по имени Райан, который ухаживает за девушкой — хозяйкой пса по кличке Уилфред. Пес и молодой человек не нравятся друг другу с первого взгляда. Дело осложняется тем, что вместо собаки Райан видит человека в собачьем костюме, который с ним разговаривает.-Сезон: 3
Серии: 13 из 13 серий
Продолжительность: ~ 00:22:00 мин серия-Качество видео: WEB-DLRip
Контейнер: AVI
Видео кодек: XviD
Аудио кодек: AC-3
Видео: MPEG-4 Visual at 1999 Кбит/сек, 720 x 400 (1.800) at 23.976 fps
Audio Rus: AC-3 at 384 Кбит/сек, 6 каналов, 48,0 КГц
Audio Eng: AC-3 at 384 Кбит/сек, 6 каналов, 48,0 КГц
Cубтитры: отсутствуют
- -

Список серий:

  • Неуверенность (Uncertainty)
  • Утешение (Comfort)
  • Подозрение (Suspicion)
  • Откровенность (Sincerity)
  • Стыд (Shame)
  • Обман (Delusion)
  • Интуиция (Intuition)
  • Ракурс (Perspective)
  • Столкновение (Confrontation)
  • Отдаленность (Distance)
  • Застой (Stagnation)
  • Героизм (Heroism)
  • Сожаления (Regrets)
-

MediaInfo:

Код:
Общее
Полное имя                               : E:\uTorDown\uTorrent\Wilfred.S03.Kubik.v.Kube\Wilfred.S03E01.WEB-DLRip.Kubik.v.Kube.avi
Формат                                   : AVI
Формат/Информация                        : Audio Video Interleave
Размер файла                             : 440 Мбайт
Продолжительность                        : 22 м.
Общий поток                              : 2781 Кбит/сек
Программа кодирования                    : VirtualDubMod 1.5.10.2 (build 2540/release)
Библиотека кодирования                   : VirtualDubMod build 2540/release
Видео
Идентификатор                            : 0
Формат                                   : MPEG-4 Visual
Профиль формата                          : Advanced Simple@L5
Параметр BVOP формата                    : 1
Параметр QPel формата                    : Нет
Параметр GMC формата                     : Без точки перехода
Параметр матрицы формата                 : Default (MPEG)
Идентификатор кодека                     : XVID
Идентификатор кодека/Подсказка           : XviD
Продолжительность                        : 22 м.
Битрейт                                  : 1999 Кбит/сек
Ширина                                   : 720 пикселей
Высота                                   : 400 пикселей
Соотношение сторон                       : 16:9
Частота кадров                           : 23,976 кадра/сек
Цветовое пространство                    : YUV
Субдискретизация насыщенности            : 4:2:0
Битовая глубина                          : 8 бит
Тип развёртки                            : Прогрессивная
Метод сжатия                             : С потерями
Бит/(Пиксели*Кадры)                      : 0.290
Размер потока                            : 316 Мбайт (72%)
Библиотека кодирования                   : XviD 65
Аудио #1
Идентификатор                            : 1
Формат                                   : AC-3
Формат/Информация                        : Audio Coding 3
Расширение режима                        : CM (complete main)
Параметр Endianness формата              : Big
Идентификатор кодека                     : 2000
Продолжительность                        : 22 м.
Вид битрейта                             : Постоянный
Битрейт                                  : 384 Кбит/сек
Каналы                                   : 6 каналов
Расположение каналов                     : Front: L C R, Side: L R, LFE
Частота                                  : 48,0 КГц
Битовая глубина                          : 16 бит
Метод сжатия                             : С потерями
Размер потока                            : 60,8 Мбайт (14%)
Выравнивание                             : Разделение по промежуткам
Продолжительность промежутка             : 42  мс. (1,00 видеокадр)
Время предзагрузки промежутка            : 500  мс.
Аудио #2
Идентификатор                            : 2
Формат                                   : AC-3
Формат/Информация                        : Audio Coding 3
Расширение режима                        : CM (complete main)
Параметр Endianness формата              : Big
Идентификатор кодека                     : 2000
Продолжительность                        : 22 м.
Вид битрейта                             : Постоянный
Битрейт                                  : 384 Кбит/сек
Каналы                                   : 6 каналов
Расположение каналов                     : Front: L C R, Side: L R, LFE
Частота                                  : 48,0 КГц
Битовая глубина                          : 16 бит
Метод сжатия                             : С потерями
Размер потока                            : 60,8 Мбайт (14%)
Выравнивание                             : Разделение по промежуткам
Продолжительность промежутка             : 42  мс. (1,00 видеокадр)
Время предзагрузки промежутка            : 500  мс.
... & RT
-

Скриншот c названием фильма

 
-Скриншоты:
       
-

Еще

       
-

Внимание! Раздача ведётся путём добавления новых серий!

Внимание! Раздача ведётся путём добавления новых серий; при каждом добавлении создётся новый торрент. Чтобы начать докачку новой серии, пользователям необходимо сделать следующее:
(1) остановить скачивание,
(2) удалить старый торрент у себя из клиента (старые серии удалять не надо),
(3) скачать новый торрент и запустить его у себя в клиенте вместо старого, при этом указать клиенту путь в старую папку куда и должно происходить скачивание новых серий.
Ваш клиент при этом должен произвести хеширование (проверку) старой папки (если не производит сам - помогите ему сделать это), и будет докачивать только те серии которых у вас ещё нет. Старые серии при этом не удаляются, а продолжают раздаваться!
Eсли вы уже удалили старые серии, то предотвратить повторную закачку старых серий можно, отжав галочку в соответствующих местах при запуске нового торрента.
-Добавлена тринадцатая, заключительная, серия третьего сезона
Вне форума [Профиль] [ЛС]
Показать сообщения:    
Ответить на тему

Текущее время: Сегодня 22:25

Часовой пояс: GMT + 3



Вы не можете начинать темы
Вы не можете отвечать на сообщения
Вы не можете редактировать свои сообщения
Вы не можете удалять свои сообщения
Вы не можете голосовать в опросах
Вы не можете прикреплять файлы к сообщениям
Вы не можете скачивать файлы