Сегодня идет свободное скачивание без начисления Download

Губка Боб Квадратные Штаны / SpongeBob SquarePants / Сезон: 6 / Серии: 26 из 26 (Стивен Хилленбург / Stephen Hillenburg) [2008-2010, Мультипликация, приключения, DVDRip] Dub

Ответить на тему
 
Автор
Сообщение

Omen ®

Стаж: 5 лет

Сообщений: 190529

Торрент-статистика

Пост 25-Авг-2013 16:28

[Цитировать]

Губка Боб квадратные штаны. / Sponge Bob square pants.
Страна: США
Жанр: Мультипликация, приключения
Продолжительность: 11:00 / 22:00 / 60:00 серия
Год выпуска: 2008-2010
Перевод: Профессиональный (дублированный)
Русские субтитры: нет-Релиз от: -Режиссёр: Стивен Хилленбург / Stephen Hillenburg-Описание: Жизнерадостная морская Губка Боб живет в подводном райском городишке. Вы не найдете его на карте, так как кто же вам выдаст самое потрясающее место под водой! Здесь все по-другому: медуз коллекционируют как бабочек, морские водоросли, качающиеся из стороны в сторону, создают красивейшие музыкальные симфонии, а деликатесом считается крабовый бутерброд. Хотите узнать побольше о таком заманчивом местечке? Познакомьтесь поближе с Губкой Бобом Квадратные Штаны!-Сэмпл / Другие раздачи мультсериала-Качество: DVDRip
Формат: AVI
Видео: 640x480 (1.33:1), 23.976 fps, XviD build 50 ~1200 kbps avg, 0.16 bit/pixel
Аудио: 48 kHz, MPEG Layer 3, 2 ch, ~192.00 kbps avg-

Список серий

s6e01a - House Fancy
s6e01b - Krabby Road
s6e02a - Penny Foolish
s6e02b - Nautical Novice
s6e03a - Spongicus
s6e03b - Suction Cup Symphony
s6e04a - Not Normal
s6e04b - Gone
s6e05a - The Splinter
s6e05b - Slide Whistle Stooges
s6e06a - A Life in a Day
s6e06b - Sun Bleached
s6e07a - Giant Squidward
s6e07b - No Nose Knows
s6e08a - The Patty Caper
s6e08b - Plankton's Regular
s6e09a - Boating Buddies
s6e09b - The Krabby Kronicle
s6e10a - The Slumber Party
s6e10b - Grooming Gary
s6e11 - SpongeBob SquarePants and the Big Wave
s6e12a - Porous Pockets
s6e12b - Choir Boys
s6e13a - Krusty Krushers
s6e13b - The Card
s6e14a - Dear Vikings
s6e14b - Ditchin'
s6e15a - Grandpappy the Pirate
s6e15b - Cephalopod Lodge
s6e16a - Squid's Visit
s6e16b - To Squarepants or Not to Squarepants
s6e17a - Shuffleboarding
s6e17b - Professor Squidward
s6e18a - Pets or Pests
s6e18b - Komputer Overload
s6e19a - Gullible Pants
s6e19b - Overbooked
s6e20a - No Hat For Pat
s6e20b - Toy Store of Doom
s6e21a - Sand Castles in the Sand
s6e21b - Shell Shocked
s6e22a - Chum Bucket Supreme
s6e22b - Single Cell Anniversary
s6e23-24 - Truth or Square
s6e25a - Pineapple Fever
s6e25b - Chum Caverns
s6e26 - The Clash of Triton

Подробные технические данные

Общее
Формат : AVI
Формат/Информация : Audio Video Interleave
Размер файла : 109 Мбайт
Продолжительность : 10 м.
Общий поток : 1401 Кбит/сек
Программа кодирования : VirtualDubMod 1.5.10.3 | www.virtualdub-fr.org || (build 2550/release)
Библиотека кодирования : VirtualDubMod build 2550/release
Видео
Идентификатор : 0
Формат : MPEG-4 Visual
Профиль формата : Advanced Simple@L5
Параметр BVOP формата : 2
Параметр QPel формата : Нет
Параметр GMC формата : Без точки перехода
Параметр матрицы формата : Default (MPEG)
Идентификатор кодека : XVID
Идентификатор кодека/Подсказка : XviD
Продолжительность : 10 м.
Битрейт : 1200 Кбит/сек
Ширина : 640 пикселей
Высота : 480 пикселей
Соотношение сторон : 4:3
Частота кадров : 23,976 кадра/сек
Цветовое пространство : YUV
Субдискретизация насыщенности : 4:2:0
Битовая глубина : 8 бит
Тип развёртки : Прогрессивная
Метод сжатия : С потерями
Бит/(Пиксели*Кадры) : 0.163
Размер потока : 93,6 Мбайт (86%)
Библиотека кодирования : XviD 1.2.1 (UTC 2008-12-04)
Аудио
Идентификатор : 1
Формат : MPEG Audio
Версия формата : Version 1
Профиль формата : Layer 3
Идентификатор кодека : 55
Идентификатор кодека/Подсказка : MP3
Продолжительность : 10 м.
Вид битрейта : Постоянный
Битрейт : 192 Кбит/сек
Каналы : 2 канала
Частота : 48,0 КГц
Метод сжатия : С потерями
Размер потока : 15,0 Мбайт (14%)
Выравнивание : Соединение по промежуткам
Продолжительность промежутка : 42 мс. (1,00 видеокадр)
Время предзагрузки промежутка : 504 мс.
Библиотека кодирования : LAME3.99r
Настройки программы : -m s -V 4 -q 2 -lowpass 18.6 -b 192

Скриншоты

Вне форума [Профиль] [ЛС]
Показать сообщения:    
Ответить на тему

Текущее время: Сегодня 19:31

Часовой пояс: GMT + 3



Вы не можете начинать темы
Вы не можете отвечать на сообщения
Вы не можете редактировать свои сообщения
Вы не можете удалять свои сообщения
Вы не можете голосовать в опросах
Вы не можете прикреплять файлы к сообщениям
Вы не можете скачивать файлы