Сегодня идет свободное скачивание без начисления Download

Учимся вместе. Руби и Йо-Йо / Rubi (2010) WEB-DLRip (104 серии из ??)

Ответить на тему
 
Автор
Сообщение

UndegraundMen ®

Стаж: 4 года 9 месяцев

Сообщений: 26429

Торрент-статистика

Пост 25-Авг-2013 11:00

[Цитировать]

Учимся вместе. Руби и Йо-Йо / Rubi (2010) WEB-DLRip (104 серии)- Год выпуска: 2010
Жанр: Детский, Развивающий, Игровой
Страна: Сингапур
Перевод: Одноголосый, профессиональный
Режиссер: Чен Ксан
Описание фильма:
Не секрет, что малыши просто обожают мультфильмы, героями которых являются такие же крохи, как они сами. Сингапурский мультсериал «Руби», главным действующим лицом которого стала маленькая озорная девочка в смешном костюмчике, понятен без слов детям всех стран. Из каждой серии совсем юные зрители обязательно почерпнут для себя что-нибудь новое об окружающем мире. Вместе со своим верным спутником Йо-йо, забавным существом неизвестной породы, Руби будет весело проводить время, мечтать, помогать маме и папе, заводить новых друзей и с радостью открывать для себя все неизведанное. Мультфильм наполнен яркими, необычными персонажами: здесь оживают даже кактусы в горшках, паровозики, светофоры и аквариумы с рыбками. Уважаемые взрослые, не сомневайтесь, в этом очаровательно-наивном и бесконечно добром мультипликационном цикле буйной фантазии ваших малышей будет где разыграться!
Продолжительность: 104 х ~00:06:05
Качество видео: WEB-DLRip
Видео: MPEG4, XviD, 720x400 (16:9), 25.000 fps, 1 708 Kbps (0.237 bit/pixel)
Аудио: MP3, 44.1 KHz, 2 ch, 128 Kbps, CBR

Список серий

Автогонка
Бамбуковая стрекоза
Бобо хулиганит
Большое и маленькое
Боулинг
Бумажный самолетик
В бассейне
В гостях у Кроко
В поисках сокровища
Внутри кита
Воздушные шарики
Воздушный змей
Волшебные мыльные пузыри
Головастики
Грибной парк аттракционов
Грузчики
Дартс
День рождения малыша-клубнички
День рождения облачка
Дрессировщики
Дуду ездит по рельсам
Загадочное яйцо
Игра в загадки
Игра в обруч
Йо-Йо находит друга
Как испечь печенье
Как посадить дерево
Качели
Клубничка ищет братика
Клубничное поле
Клубничный тортик
Коньки
Котенок Китти
Котенок
Кроко и воздушный шарик
Кроко просит прощения
Кто боится дождя
Кто боится паучка
Кто всех сильнее
Кубики
Кувшинки
Магнитные пазлы
Маленькие соревнования
Малыш-клубничка идет в школу
Малыш-клубничка притворяется
Мама на Луне
Мамин день рождения
Мамина фотография
Мамины помощники
Музыкальный цветок
Напугайка
Неожиданные соседи
Непослушная клубничка
Неразумный Бобо
Новая учительница
Новый год
Открытка для мамы
Падающие звезды
Папины очки
Паровозик-почтальон
Паровозик и гусеница
Первый день в школе
Письмо для Кроко
Погоня за птицей
Подводный мир
Полет на воздушном шаре
Помощники
Потерянная раковина улитки
Прогулка
Прыгаем по лужам
Прыжки на качелях
Прятки
Пульт от телевизора
Путешествие на Луну. Продолжение
Путешествие на Луну
Путешествие на плоту
Радиоуправляемая машинка
Радуга
Разноцветные стены
Робот-няня
Руби-доктор
Светлячок
Светофор и малыш-клубничка
Скейт
Снежный бой
Сокровища под водой
Спящая красавица
Суперклей
У врача
Упавшая звезда
Урок музыки
Урок рисования
Утенок ищет маму
Утренняя зарядка
Фейерверки
Фотографы
Храбрый ковбой
Художники
Цветные мелки
Цветочное семечко
Цирк
Чья мама лучше
Шарф для жирафихи
Шоу талантов

MediaInfo 1 серии

Формат : AVI
Формат/Информация : Audio Video Interleave
Размер файла : 80,1 Мбайт
Продолжительность : 6 м. 4 с.
Общий поток : 1846 Кбит/сек
Программа кодирования : VirtualDubMod 1.5.10.3 | www.virtualdub-fr.org || (build 2550/release)
Библиотека кодирования : VirtualDubMod build 2550/release
Видео
Идентификатор : 0
Формат : MPEG-4 Visual
Профиль формата : Advanced Simple@L5
Параметр BVOP формата : 2
Параметр QPel формата : Нет
Параметр GMC формата : Без точки перехода
Параметр матрицы формата : Default (H.263)
Идентификатор кодека : XVID
Идентификатор кодека/Подсказка : XviD
Продолжительность : 6 м. 4 с.
Битрейт : 1708 Кбит/сек
Ширина : 720 пикселей
Высота : 400 пикселей
Соотношение сторон : 16:9
Частота кадров : 25,000 кадров/сек
Цветовое пространство : YUV
Субдискретизация насыщенности : 4:2:0
Битовая глубина : 8 бит
Тип развёртки : Прогрессивная
Метод сжатия : С потерями
Бит/(Пиксели*Кадры) : 0.237
Размер потока : 74,1 Мбайт (93%)
Библиотека кодирования : XviD 1.2.1 (UTC 2008-12-04)
Аудио
Идентификатор : 1
Формат : MPEG Audio
Версия формата : Version 1
Профиль формата : Layer 3
Идентификатор кодека : 55
Идентификатор кодека/Подсказка : MP3
Продолжительность : 6 м. 4 с.
Вид битрейта : Постоянный
Битрейт : 128 Кбит/сек
Каналы : 2 канала
Частота : 44,1 КГц
Метод сжатия : С потерями
Размер потока : 5,56 Мбайт (7%)
Выравнивание : Разделение по промежуткам
Продолжительность промежутка : 40 мс. (1,00 видеокадр)
Время предзагрузки промежутка : 500 мс.
Библиотека кодирования : LAME3.99r
Настройки программы : -m s -V 4 -q 2 -lowpass 17 -b 128

Доп.информация

Серии взяты из онлайн-трансляции, серий больше, но нормального качества только эти нашел. Серии идут в алфавитном порядке.
Скриншоты:
         
       
Вне форума [Профиль] [ЛС]

Dracula

Стаж: 4 года 1 месяц

Сообщений: 10076

Торрент-статистика

Пост 25-Авг-2013 13:04 (спустя 2 часа 4 минуты)

Топик был перенесен из форума Настройка и оптимизация ОС в форум Мультсериалы


kogesan
 
Показать сообщения:    
Ответить на тему

Текущее время: Сегодня 14:32

Часовой пояс: GMT + 3



Вы не можете начинать темы
Вы не можете отвечать на сообщения
Вы не можете редактировать свои сообщения
Вы не можете удалять свои сообщения
Вы не можете голосовать в опросах
Вы не можете прикреплять файлы к сообщениям
Вы не можете скачивать файлы