Сегодня идет свободное скачивание без начисления Download

Девчата из чата / a gURLs wURLd (Сезон 1, 1-26 серия(26)) (2010) DVBrip [TeenTv]

Ответить на тему
 
Автор
Сообщение

UndegraundMen ®

Стаж: 5 лет 6 месяцев

Сообщений: 25861

Торрент-статистика

Пост 19-Авг-2013 05:00

[Цитировать]

Девчата из чата / a gURLs wURLd (2010)- Год выпуска: 2010
Жанр: Комедия, Приключения
Перевод: Многоголосый закадровый, профессиональный

Режиссер: Ральф Страссер
Актеры: Мэрни Кеннеди, Шарлотта Никдао, Софи Карбджински, Джули Ви, Токая Хонда, Сэм Фрайзер, Майкл Лотт, Клода Кроун, Дон Хелберт, Верация Йонг
Описание фильма:
Три девочки-подростка — Элли Хенсон из Австралии, Эмма Шуберт из Германии и Джэки Ли из Сингапура — знакомятся в Сингапуре, где они учатся. Их объединяет яркий стиль, живость и общий интерес к танцам, в которых каждая из них преуспевает.
После окончания учебного года, они осознают, что двое из них должны вернуться домой — в Австралию Германию. К их радости и удивлению, они понимают, что их мобильные телефоны и компьютеры могут «перенести» их друг к другу не покидаю дома. С тех пор, их жизнь продолжает быть полной веселья, приключений (и немного романтики), а три девчонки свободно могут перемещаться между Австралией, Сингапуром и Германией.
Все релизы сериала
Продолжительность: ~00:24
Качество видео: DVBRip
Сэмпл: Скачать
Видеокодек: MPEG-1
Битрейт видео: ~1798kbps
Размер кадра: 720x576
Аудиокодек: MP2 2ch
Битрейт аудио: 160kbps

MEDIAINFO

Video
ID : 1
Format : MPEG Video
Format version : Version 2
Format profile : Main@Main
Format settings, BVOP : No
Format settings, Matrix : Custom
Codec ID : V_MPEG1
Codec ID/Info : MPEG 1 or 2 Video
Duration : 24mn 6s
Bit rate mode : Variable
Bit rate : 1 798 Kbps
Maximum bit rate : 15.0 Mbps
Width : 720 pixels
Height : 576 pixels
Display aspect ratio : 16:9
Frame rate mode : Constant
Frame rate : 25.000 fps
Standard : PAL
Color space : YUV
Chroma subsampling : 4:2:0
Bit depth : 8 bits
Scan type : Interlaced
Scan order : Top Field First
Compression mode : Lossy
Bits/(Pixel*Frame) : 0.173
Time code of first frame : 03:55:38:00
Time code source : Group of pictures header
Stream size : 310 MiB (90%)
Default : Yes
Forced : No
Audio
ID : 2
Format : MPEG Audio
Format version : Version 1
Format profile : Layer 2
Codec ID : A_MPEG/L2
Codec ID/Hint : MP2
Duration : 24mn 6s
Bit rate mode : Constant
Bit rate : 160 Kbps
Channel(s) : 2 channels
Sampling rate : 48.0 KHz
Compression mode : Lossy
Delay relative to video : -23ms
Stream size : 27.6 MiB (8%)
Default : Yes
Forced : No
Скриншоты:
       
Время раздачи: 24/7
Вне форума [Профиль] [ЛС]
Показать сообщения:    
Ответить на тему

Текущее время: Сегодня 07:07

Часовой пояс: GMT + 3



Вы не можете начинать темы
Вы не можете отвечать на сообщения
Вы не можете редактировать свои сообщения
Вы не можете удалять свои сообщения
Вы не можете голосовать в опросах
Вы не можете прикреплять файлы к сообщениям
Вы не можете скачивать файлы