Сегодня идет свободное скачивание без начисления Download

Губка Боб Квадратные Штаны / SpongeBob SquarePants / Сезон: 9 / Серии: 1-3, 5 из 26 (Винсент Уоллер / Vincent Waller) [2012, Ситком, Буффонада, Приключения, WEBRip] MVO

Ответить на тему
 
Автор
Сообщение

Omen ®

Стаж: 5 лет

Сообщений: 190529

Торрент-статистика

Пост 18-Авг-2013 16:58

[Цитировать]

Губка Боб Квадратные Штаны / SpongeBob SquarePants
Страна: США
Жанр: Ситком, Буффонада, Приключения
Продолжительность: 00:11:00
Год выпуска: 2012
Перевод (1, 2, 5 серии): Любительский (многоголосый закадровый)
Перевод (3 серия): Одноголосый закадровый
Русские субтитры: нет-Режиссёр: Винсент Уоллер / Vincent Waller
Роли озвучивали: Том Кенни, Билл Фагербакке, Клэнси Браун, Роджер Бампасс, Кэролин Лоуренс, Даг Лоуренс, Джилл Телли, Лори Алан-Описание: 3 января 2011, Nickelodeon упорядочили 26 эпизодов для девятого сезона, что подтверждается началом трансляции 21 июля 2012 года. 9 сезон будет состоять из эпизодов 179—204. Губка Боб Квадратные Штаны станет первым мультсериалом канала Nickelodeon, который достигнет 200-го эпизода. Завершение трансляции 9-го сезона планируется в 2014 году.-Список серий:
1. Extreme Spots / Экстремальные места
2. Squirrel Record / Беличий рекорд
3. Patrick-Man! / Патрик-Мэн!
5. License to Milkshake / Лицензия на молочный коктейль
-Доп. информация: Переведено и озвучено творческим объединением JuiceTime. В ролях: SPtrue (1-3, 5 серии), Shedanna, OverWord (1, 2, 5 серии).-Семпл: http://multi-up.com/894844-Качество: WEBRip
Формат: MP4
Видео (1-3 серии): MPEG4 Video (H264) 1280x720 23.976fps 2914kbps
Видео (5 серия): MPEG4 Video (H264) 640x360 23.976fps 1462kbps
Аудио: AAC 48000Hz stereo 164kbps
Субтитры: отсутствуют

Подробные технические данные

GeneralComplete name : J:\Губка Боб Квадратные Штаны - сезон 9 - WEB-DL 720p (JuiceTime)\Серия 1 - Extreme Spots (Экстремальные места).mp4Format : MPEG-4Format profile : Base MediaCodec ID : isomFile size : 243 MiBDuration : 11mn 0sOverall bit rate mode : VariableOverall bit rate : 3 083 KbpsEncoded date : UTC 2013-02-22 07:36:48Tagged date : UTC 2013-02-22 07:36:48Writing application : Lavf54.63.104
VideoID : 1Format : AVCFormat/Info : Advanced Video CodecFormat profile : Main@L3.1Format settings, CABAC : YesFormat settings, ReFrames : 1 frameCodec ID : avc1Codec ID/Info : Advanced Video CodingDuration : 11mn 0sBit rate : 2 935 KbpsWidth : 1 280 pixelsHeight : 720 pixelsDisplay aspect ratio : 16:9Frame rate mode : ConstantFrame rate : 23.976 fpsColor space : YUVChroma subsampling : 4:2:0Bit depth : 8 bitsScan type : ProgressiveBits/(Pixel*Frame) : 0.133Stream size : 229 MiB (95%)Writing library : x264 core 129Encoding settings : cabac=1 / ref=1 / deblock=1:0:0 / analyse=0x1:0x131 / me=dia / subme=2 / psy=1 / psy_rd=1.00:0.00 / mixed_ref=0 / me_range=16 / chroma_me=1 / trellis=0 / 8x8dct=0 / cqm=0 / deadzone=21,11 / fast_pskip=1 / chroma_qp_offset=0 / threads=2 / lookahead_threads=1 / sliced_threads=0 / nr=0 / decimate=1 / interlaced=0 / bluray_compat=0 / constrained_intra=0 / bframes=0 / weightp=2 / keyint=250 / keyint_min=25 / scenecut=40 / intra_refresh=0 / rc_lookahead=40 / rc=abr / mbtree=1 / bitrate=2935 / ratetol=1.0 / qcomp=0.60 / qpmin=10 / qpmax=51 / qpstep=4 / ip_ratio=1.41 / aq=1:1.00Encoded date : UTC 2013-02-22 07:36:48Tagged date : UTC 2013-02-22 07:36:48
AudioID : 2Format : AACFormat/Info : Advanced Audio CodecFormat profile : LCCodec ID : 40Duration : 11mn 0sDuration_FirstFrame : 64msBit rate mode : VariableBit rate : 165 KbpsMaximum bit rate : 192 KbpsChannel count : 2 channelsChannel positions : Front: L RSampling rate : 48.0 KHzCompression mode : LossyStream size : 13.0 MiB (5%)Encoded date : UTC 2013-02-22 07:36:48Tagged date : UTC 2013-02-22 07:36:48

Скриншоты

Вне форума [Профиль] [ЛС]
Показать сообщения:    
Ответить на тему

Текущее время: Сегодня 14:09

Часовой пояс: GMT + 3



Вы не можете начинать темы
Вы не можете отвечать на сообщения
Вы не можете редактировать свои сообщения
Вы не можете удалять свои сообщения
Вы не можете голосовать в опросах
Вы не можете прикреплять файлы к сообщениям
Вы не можете скачивать файлы