Сегодня идет свободное скачивание без начисления Download

Ад на колёсах / Hell on Wheels (Сезон 3, полный, 10 серий) [LostFilm] (Дэвид Фон Энкен/David Von Ancken ...) [2013 г.] (Драма, Вестерн) [WEB-DLRip] (MVO)

Ответить на тему
 
Автор
Сообщение

Omen ®

Стаж: 5 лет 11 месяцев

Сообщений: 184329

Торрент-статистика

Пост 17-Авг-2013 15:36

[Цитировать]

Ад на колёсах / Hell on Wheels
«Blood will be spilled. Lives will be lost. Men will be ruined.»
- Русское название: Ад на колёсах
Оригинальное название: Hell on Wheels
Страна: Канада, Великобритания
Год выпуска: 2013
Жанр: Драма, Вестерн-Озвучка: Студия LostFilm
Перевод: Многоголосый закадровый, профессиональный-Режиссер: Дэвид Фон Энкен/David Von Ancken, Адам Дэвидсон/Adam Davidson, Джон Шибан/John Shiban ...
Актеры: Энсон Маунт, Колм Мини, Коммон, Доминик МакЭллигот, Том Нунен, Эдди Спирс, Кристофер Хейердал, Робин МакЛиви, Каша Кропински, Бен Эслер ...-Описание фильма:
В центре сюжета вестерна — бывший солдат Конфедерации Каллен Боханнан, решительно намеренный отомстить за изнасилование и смерть своей любимой жены, выследив и убив солдат Союза, которые сделали это. В итоге он оказывается в Небраске, на одном из участков строительства трансконтинентальной железной дороги.-Дата мировой премьеры: 6 ноября 2011
Сезон: 3
Серии: 10 из 10 серий
Продолжительность: ~ 43:00 мин серия-Качество видео: WEB-DLRip
Формат: AVI
Видеокодек: XviD
Аудиокодек: Mp3
Видео: MPEG-4 Visual at 1345 Кбит/сек, 720 x 400 (1.800) at 23.976 fps
Аудио: MPEG Audio at 128 Кбит/сек, 2 канала, 48,0 КГц
- -

Список серий:

  • Большой злой волк (Big Bad Wolf)
  • Отчуждение собственности (Eminent Domain)
  • Земельные войны (Range War)
  • Игра (The Game)
  • Поиски (Searchers)
  • Одним мулом меньше (One Less Mule)
  • Холера (Cholera)
  • Это случилось в Бостоне (It Happened in Boston)
  • Отцовские грехи (Fathers and Sins)
  • Вставай у плуга(Get Behind the Mule)
-

MediaInfo:

Код:
Общее
Полное имя                               : E:\_Сериалы\Ад на колесах (Hell on Wheels)\Hell On Wheels 3 - LostFilm.TV\Hell.On.Wheels.S03E01.rus.LostFilm.TV.avi
Формат                                   : AVI
Формат/Информация                        : Audio Video Interleave
Размер файла                             : 475 Мбайт
Продолжительность                        : 43 м.
Режим общего битрейта                    : Переменный
Общий поток                              : 1544 Кбит/сек
Программа кодирования                    : Nandub v1.0rc2
Библиотека кодирования                   : Nandub build 1853/release
Видео
Идентификатор                            : 0
Формат                                   : MPEG-4 Visual
Профиль формата                          : Simple@L3
Параметр BVOP формата                    : Нет
Параметр QPel формата                    : Нет
Параметр GMC формата                     : Без точки перехода
Параметр матрицы формата                 : Default (H.263)
Идентификатор кодека                     : XVID
Идентификатор кодека/Подсказка           : XviD
Продолжительность                        : 43 м.
Битрейт                                  : 1345 Кбит/сек
Ширина                                   : 720 пикселей
Высота                                   : 400 пикселей
Соотношение сторон                       : 16:9
Частота кадров                           : 23,976 кадра/сек
Цветовое пространство                    : YUV
Субдискретизация насыщенности            : 4:2:0
Битовая глубина                          : 8 бит
Тип развёртки                            : Прогрессивная
Метод сжатия                             : С потерями
Бит/(Пиксели*Кадры)                      : 0.195
Размер потока                            : 414 Мбайт (87%)
Библиотека кодирования                   : XviD 1.2.1 (UTC 2008-12-04)
Аудио
Идентификатор                            : 1
Формат                                   : MPEG Audio
Версия формата                           : Version 1
Профиль формата                          : Layer 3
Режим                                    : Joint stereo
Идентификатор кодека                     : 55
Идентификатор кодека/Подсказка           : MP3
Продолжительность                        : 43 м.
Вид битрейта                             : Переменный
Битрейт                                  : 192 Кбит/сек
Каналы                                   : 2 канала
Частота                                  : 48,0 КГц
Метод сжатия                             : С потерями
Размер потока                            : 57,2 Мбайт (12%)
Выравнивание                             : Соединение по промежуткам
Продолжительность промежутка             : 24  мс. (0,58 видеокадр)
Время предзагрузки промежутка            : 528  мс.
Библиотека кодирования                   : LAME3.97b
Настройки программы                      : -m j -V 4 -q 3 -lowpass 18.6 --abr 192
689127
-

Скриншот c названием фильма

 
-Скриншоты:
       
-

Еще

       
-

Внимание! Раздача ведётся путём добавления новых серий!

Внимание! Раздача ведётся путём добавления новых серий; при каждом добавлении создётся новый торрент. Чтобы начать докачку новой серии, пользователям необходимо сделать следующее:
(1) остановить скачивание,
(2) удалить старый торрент у себя из клиента (старые серии удалять не надо),
(3) скачать новый торрент и запустить его у себя в клиенте вместо старого, при этом указать клиенту путь в старую папку куда и должно происходить скачивание новых серий.
Ваш клиент при этом должен произвести хеширование (проверку) старой папки (если не производит сам - помогите ему сделать это), и будет докачивать только те серии которых у вас ещё нет. Старые серии при этом не удаляются, а продолжают раздаваться!
Eсли вы уже удалили старые серии, то предотвратить повторную закачку старых серий можно, отжав галочку в соответствующих местах при запуске нового торрента.
-Добавлена десятая, заключительная, серия третьего сезона
Вне форума [Профиль] [ЛС]
Показать сообщения:    
Ответить на тему

Текущее время: Сегодня 11:10

Часовой пояс: GMT + 3



Вы не можете начинать темы
Вы не можете отвечать на сообщения
Вы не можете редактировать свои сообщения
Вы не можете удалять свои сообщения
Вы не можете голосовать в опросах
Вы не можете прикреплять файлы к сообщениям
Вы не можете скачивать файлы