Today is a free download without charge Download

(Downtempo) Touch And Go - I Find You Very Attractive - 1999 [FLAC, tracks+.cue, lossless]

Reply to topic
 
Author
Message

Koralina ®

Longevity: 9 years 5 months

Posts: 994

Location: Lithuania

Торрент-статистика

Post 15-Aug-2013 16:50

[Quote]

Touch And Go / I Find You Very Attractive
Год издания: 1999
Страна: Europe
Жанр: Downtempo
Продолжительность: 01.19.25
Лейбл издания: V2 Records, Inc.
Источник (релизер): Koralina
Формат: FLAC
Битрейт аудио: lossless
Тип рипа: tracks+.cue
Наличие сканов в буклете: нет

Трэклист

Touch And Go - I find you very attractive
01. Would You...? (3:11)
02. Straight To... Number One (3:05)
03. Tango in Harlem (3:24)
04. Big Beat (3:12)
05. Ecoute, Repete (4:36)
06. So Hot (3:23)
07. Mein Freund Harvey (Sugar Daddy) (4:36)
08. Are You Talking About Me? (3:58)
09. Would You...? (Trailerment Go To Rio Edit) (3:13)
10. Life's a Beach (4:18)
11. Thanks For Coming (3:41)
12. Straigh To... Number One (Dreamcatcher's Mix) (3:37)
13. Danceteria Bongo Bong (4:32)
14. Jazz Essential (feat. Jazz Con Bazz) (3:49)
15. Mar Mary Shackles (3:15)
16. Extasy feat P. Ondria What a Wonderful World (5:16)
17. Blowing (feat. Ever C) (4:08)
18. Straight To Number One (Go Latino Mix) (5:01)
19. Le Flic Et La Fille (feat. Arling and Cameron) (4:26)
20. Straigh To #1 (The Cool Fish Mix) (4:46)

Лог создания рипа

Код:
Exact Audio Copy V0.99 prebeta 5 from 4. May 2009
EAC extraction logfile from 5. November 2009, 0:38
Touch And Go / I find you very attractive
Used drive  : ASUS    DRW-1608P2   Adapter: 2  ID: 0
Read mode               : Secure
Utilize accurate stream : Yes
Defeat audio cache      : Yes
Make use of C2 pointers : No
Read offset correction                      : 48
Overread into Lead-In and Lead-Out          : No
Fill up missing offset samples with silence : Yes
Delete leading and trailing silent blocks   : No
Null samples used in CRC calculations       : Yes
Used interface                              : Native Win32 interface for Win NT & 2000
Gap handling                                : Appended to previous track
Used output format              : User Defined Encoder
Selected bitrate                : 768 kBit/s
Quality                         : High
Add ID3 tag                     : No
Command line compressor         : C:\Program Files\FLAC\flac.exe
Additional command line options : -8 -V -T "ARTIST=%a" -T "TITLE=%t" -T "ALBUM=%g" -T "DATE=%y" -T "TRACKNUMBER=%n" -T "GENRE=%m" -T "COMMENT=EAC FLAC -8" %s
TOC of the extracted CD
     Track |   Start  |  Length  | Start sector | End sector
    ---------------------------------------------------------
        1  |  0:00.00 |  3:10.68 |         0    |    14317
        2  |  3:10.68 |  3:04.50 |     14318    |    28167
        3  |  6:15.43 |  3:23.50 |     28168    |    43442
        4  |  9:39.18 |  3:12.10 |     43443    |    57852
        5  | 12:51.28 |  4:35.43 |     57853    |    78520
        6  | 17:26.71 |  3:22.61 |     78521    |    93731
        7  | 20:49.57 |  4:36.05 |     93732    |   114436
        8  | 25:25.62 |  3:57.73 |    114437    |   132284
        9  | 29:23.60 |  3:12.50 |    132285    |   146734
       10  | 32:36.35 |  4:17.54 |    146735    |   166063
       11  | 36:54.14 |  3:41.34 |    166064    |   182672
       12  | 40:35.48 |  3:36.46 |    182673    |   198918
       13  | 44:12.19 |  4:31.57 |    198919    |   219300
       14  | 48:44.01 |  3:49.30 |    219301    |   236505
       15  | 52:33.31 |  3:15.15 |    236506    |   251145
       16  | 55:48.46 |  5:15.53 |    251146    |   274823
       17  | 61:04.24 |  4:08.36 |    274824    |   293459
       18  | 65:12.60 |  5:01.26 |    293460    |   316060
       19  | 70:14.11 |  4:25.62 |    316061    |   335997
       20  | 74:39.73 |  4:45.48 |    335998    |   357420
Track  1
     Filename F:\Download Tr\Touch And Go flac\01. Touch And Go - Would You... .wav
     Pre-gap length  0:00:02.00
     Peak level 96.7 %
     Track quality 99.9 %
     Test CRC F0EB9209
     Copy CRC F0EB9209
     Copy OK
Track  2
     Filename F:\Download Tr\Touch And Go flac\02. Touch And Go - Straight To... Number One.wav
     Peak level 96.8 %
     Track quality 100.0 %
     Test CRC 55EF83A1
     Copy CRC 55EF83A1
     Copy OK
Track  3
     Filename F:\Download Tr\Touch And Go flac\03. Touch And Go - Tango in Harlem.wav
     Peak level 88.9 %
     Track quality 100.0 %
     Test CRC 953E2D31
     Copy CRC 953E2D31
     Copy OK
Track  4
     Filename F:\Download Tr\Touch And Go flac\04. Touch And Go - Big Beat.wav
     Peak level 86.7 %
     Track quality 100.0 %
     Test CRC 5BD264AB
     Copy CRC 5BD264AB
     Copy OK
Track  5
     Filename F:\Download Tr\Touch And Go flac\05. Touch And Go - Ecoute, Repete.wav
     Peak level 91.4 %
     Track quality 100.0 %
     Test CRC F7CBAC87
     Copy CRC F7CBAC87
     Copy OK
Track  6
     Filename F:\Download Tr\Touch And Go flac\06. Touch And Go - So Hot.wav
     Peak level 93.6 %
     Track quality 100.0 %
     Test CRC 29DDFACD
     Copy CRC 29DDFACD
     Copy OK
Track  7
     Filename F:\Download Tr\Touch And Go flac\07. Touch And Go - Mein Freund Harvey (Sugar Daddy).wav
     Peak level 83.1 %
     Track quality 100.0 %
     Test CRC A2BBEF6E
     Copy CRC A2BBEF6E
     Copy OK
Track  8
     Filename F:\Download Tr\Touch And Go flac\08. Touch And Go - Are You Talking About Me .wav
     Peak level 87.0 %
     Track quality 100.0 %
     Test CRC 3D431552
     Copy CRC 3D431552
     Copy OK
Track  9
     Filename F:\Download Tr\Touch And Go flac\09. Touch And Go - Would You...  (Trailerment Go To Rio Edit).wav
     Peak level 99.0 %
     Track quality 100.0 %
     Test CRC 8F25424A
     Copy CRC 8F25424A
     Copy OK
Track 10
     Filename F:\Download Tr\Touch And Go flac\10. Touch And Go - Life's a Beach.wav
     Peak level 87.3 %
     Track quality 100.0 %
     Test CRC 344568D8
     Copy CRC 344568D8
     Copy OK
Track 11
     Filename F:\Download Tr\Touch And Go flac\11. Touch And Go - Thanks For Coming.wav
     Peak level 88.8 %
     Track quality 100.0 %
     Test CRC 6E1FC2E4
     Copy CRC 6E1FC2E4
     Copy OK
Track 12
     Filename F:\Download Tr\Touch And Go flac\12. Touch And Go - Straigh To... Number One (Dreamcatcher's Mix).wav
     Peak level 90.5 %
     Track quality 100.0 %
     Test CRC A4E84EE2
     Copy CRC A4E84EE2
     Copy OK
Track 13
     Filename F:\Download Tr\Touch And Go flac\13. Touch And Go - Danceteria Bongo Bong.wav
     Peak level 100.0 %
     Track quality 100.0 %
     Test CRC E62D9901
     Copy CRC E62D9901
     Copy OK
Track 14
     Filename F:\Download Tr\Touch And Go flac\14. Touch And Go - Jazz Essential (feat. Jazz Con Bazz).wav
     Peak level 94.6 %
     Track quality 100.0 %
     Test CRC DA3BC885
     Copy CRC DA3BC885
     Copy OK
Track 15
     Filename F:\Download Tr\Touch And Go flac\15. Touch And Go - Mar Mary Shackles.wav
     Peak level 100.0 %
     Track quality 100.0 %
     Test CRC E4B4E820
     Copy CRC E4B4E820
     Copy OK
Track 16
     Filename F:\Download Tr\Touch And Go flac\16. Touch And Go - Extasy feat P. Ondria What a Wonderful World.wav
     Peak level 100.0 %
     Track quality 100.0 %
     Test CRC D16D5CBB
     Copy CRC D16D5CBB
     Copy OK
Track 17
     Filename F:\Download Tr\Touch And Go flac\17. Touch And Go - Blowing (feat. Ever C).wav
     Peak level 91.0 %
     Track quality 100.0 %
     Test CRC C36AF9A3
     Copy CRC C36AF9A3
     Copy OK
Track 18
     Filename F:\Download Tr\Touch And Go flac\18. Touch And Go - Straight To Number One (Go Latino Mix).wav
     Peak level 100.0 %
     Track quality 100.0 %
     Test CRC E0854E8B
     Copy CRC E0854E8B
     Copy OK
Track 19
     Filename F:\Download Tr\Touch And Go flac\19. Touch And Go - Le Flic Et La Fille (feat. Arling and Cameron).wav
     Peak level 100.0 %
     Track quality 100.0 %
     Test CRC B31472CC
     Copy CRC B31472CC
     Copy OK
Track 20
     Filename F:\Download Tr\Touch And Go flac\20. Touch And Go - Straigh To #1 (The Cool Fish Mix).wav
     Peak level 100.0 %
     Track quality 99.7 %
     Test CRC C2048DA3
     Copy CRC C2048DA3
     Copy OK
No errors occurred
End of status report

Индексная карта (non-compilant .cue)

Код:
REM GENRE Rock
REM DATE 2000
REM DISCID 2A129D14
REM COMMENT "ExactAudioCopy v0.99pb5"
PERFORMER "Touch And Go"
TITLE "I find you very attractive"
FILE "01. Touch And Go - Would You... .wav" WAVE
  TRACK 01 AUDIO
    TITLE "Would You...?"
    PERFORMER "Touch And Go"
    INDEX 01 00:00:00
FILE "02. Touch And Go - Straight To... Number One.wav" WAVE
  TRACK 02 AUDIO
    TITLE "Straight To... Number One"
    PERFORMER "Touch And Go"
    INDEX 01 00:00:00
FILE "03. Touch And Go - Tango in Harlem.wav" WAVE
  TRACK 03 AUDIO
    TITLE "Tango in Harlem"
    PERFORMER "Touch And Go"
    INDEX 01 00:00:00
FILE "04. Touch And Go - Big Beat.wav" WAVE
  TRACK 04 AUDIO
    TITLE "Big Beat"
    PERFORMER "Touch And Go"
    INDEX 01 00:00:00
FILE "05. Touch And Go - Ecoute, Repete.wav" WAVE
  TRACK 05 AUDIO
    TITLE "Ecoute, Repete"
    PERFORMER "Touch And Go"
    INDEX 01 00:00:00
FILE "06. Touch And Go - So Hot.wav" WAVE
  TRACK 06 AUDIO
    TITLE "So Hot"
    PERFORMER "Touch And Go"
    INDEX 01 00:00:00
FILE "07. Touch And Go - Mein Freund Harvey (Sugar Daddy).wav" WAVE
  TRACK 07 AUDIO
    TITLE "Mein Freund Harvey (Sugar Daddy)"
    PERFORMER "Touch And Go"
    INDEX 01 00:00:00
FILE "08. Touch And Go - Are You Talking About Me .wav" WAVE
  TRACK 08 AUDIO
    TITLE "Are You Talking About Me?"
    PERFORMER "Touch And Go"
    INDEX 01 00:00:00
FILE "09. Touch And Go - Would You...  (Trailerment Go To Rio Edit).wav" WAVE
  TRACK 09 AUDIO
    TITLE "Would You...? (Trailerment Go To Rio Edit)"
    PERFORMER "Touch And Go"
    INDEX 01 00:00:00
FILE "10. Touch And Go - Life's a Beach.wav" WAVE
  TRACK 10 AUDIO
    TITLE "Life's a Beach"
    PERFORMER "Touch And Go"
    INDEX 01 00:00:00
FILE "11. Touch And Go - Thanks For Coming.wav" WAVE
  TRACK 11 AUDIO
    TITLE "Thanks For Coming"
    PERFORMER "Touch And Go"
    INDEX 01 00:00:00
FILE "12. Touch And Go - Straigh To... Number One (Dreamcatcher's Mix).wav" WAVE
  TRACK 12 AUDIO
    TITLE "Straigh To... Number One (Dreamcatcher's Mix)"
    PERFORMER "Touch And Go"
    INDEX 01 00:00:00
FILE "13. Touch And Go - Danceteria Bongo Bong.wav" WAVE
  TRACK 13 AUDIO
    TITLE "Danceteria Bongo Bong"
    PERFORMER "Touch And Go"
    INDEX 01 00:00:00
FILE "14. Touch And Go - Jazz Essential (feat. Jazz Con Bazz).wav" WAVE
  TRACK 14 AUDIO
    TITLE "Jazz Essential (feat. Jazz Con Bazz)"
    PERFORMER "Touch And Go"
    INDEX 01 00:00:00
FILE "15. Touch And Go - Mar Mary Shackles.wav" WAVE
  TRACK 15 AUDIO
    TITLE "Mar Mary Shackles"
    PERFORMER "Touch And Go"
    INDEX 01 00:00:00
FILE "16. Touch And Go - Extasy feat P. Ondria What a Wonderful World.wav" WAVE
  TRACK 16 AUDIO
    TITLE "Extasy feat P. Ondria What a Wonderful World"
    PERFORMER "Touch And Go"
    INDEX 01 00:00:00
FILE "17. Touch And Go - Blowing (feat. Ever C).wav" WAVE
  TRACK 17 AUDIO
    TITLE "Blowing (feat. Ever C)"
    PERFORMER "Touch And Go"
    INDEX 01 00:00:00
FILE "18. Touch And Go - Straight To Number One (Go Latino Mix).wav" WAVE
  TRACK 18 AUDIO
    TITLE "Straight To Number One (Go Latino Mix)"
    PERFORMER "Touch And Go"
    INDEX 01 00:00:00
FILE "19. Touch And Go - Le Flic Et La Fille (feat. Arling and Cameron).wav" WAVE
  TRACK 19 AUDIO
    TITLE "Le Flic Et La Fille (feat. Arling and Cameron)"
    PERFORMER "Touch And Go"
    INDEX 01 00:00:00
FILE "20. Touch And Go - Straigh To #1 (The Cool Fish Mix).wav" WAVE
  TRACK 20 AUDIO
    TITLE "Straigh To #1 (The Cool Fish Mix)"
    PERFORMER "Touch And Go"
    INDEX 01 00:00:00

YouTube

Об исполнителе (группе)

http://www.plong.com/page_pid_85_release_44926_lang_1.aspx

_________________
Other forum [Profile] [PM]
Display posts from previous:    
Reply to topic

The time now is: Today 15:15

All times are GMT + 3 Hours



You cannot post new topics in this forum
You cannot reply to topics in this forum
You cannot edit your posts in this forum
You cannot delete your posts in this forum
You cannot vote in polls in this forum
You cannot attach files in this forum
You cannot download files in this forum