Сегодня идет свободное скачивание без начисления Download

Долина волков - Западня / Kurtlar vadisi - Pusu (4-5 сезон: 84-136 серии) (2009-2013) TVRip (ПМ (Хабар)) (обновляемая)

Ответить на тему
 
Автор
Сообщение

UndegraundMen ®

Стаж: 5 лет 8 месяцев

Сообщений: 25860

Торрент-статистика

Пост 12-Авг-2013 23:03

[Цитировать]

Долина волков - Западня / Kurtlar vadisi - Pusu (4-5 сезон: 84-136 серии) (2009-2013) TVRip (ПМ (Хабар)) (обновляемая)- Год выпуска: 2009-2013
Жанр: Боевик, Криминал, Триллер
Перевод: Многоголосый закадровый, профессиональный
Озвучка / Автор перевода: Агентство Хабар

Режиссер: Садуллах Сентюрк
Актеры: Гюркан Уйгун, Кенан Чобан, Осман Сойкут, Бахадыр Ток, Неджати Шашмаз, Нефисе Каратай, Сонмез Атасой, Эрхан Уфак, Эрдем Эргюней, Керем Фиртина
Описание фильма:
Сериал начинается с покушения на бизнесмена Чагры Тороса, которое устроено террористической организацией. Исполнители покушения были задержаны. Полат Алемдар уверен, что за официально объявленными причинами покушения скрываются совсем другие силы и поводы. Он хочет найти настоящих преступников и делает все, чтобы и это дело не было закрыто до того, как они будут найдены. Для поиска виновных он направляется по следу самого важного оружия века - денег. Шаг за шагом Полат собирает улики и пытается наладить прямой контакт с семьей Торосов. В это время грязные руки Четырех Тузов уже нажали на кнопку приказа об уничтожении Полата и начали избавляться от последних свидетелей покушения…
Продолжительность: 53 x ~ 01:30:00
Качество видео: TVRip
Сэмпл: Скачать
Видеокодек: Xvid
Битрейт видео: ~ 1100 Кбит/с
Размер кадра: 640x480
Аудиокодек: MP3, 2 ch.
Битрейт аудио: 192 Кбит/с

MediaInfo

Формат : AVI
Формат/Информация : Audio Video Interleave
Размер файла : 951 Мбайт
Продолжительность : 1 ч. 39 м.
Общий поток : 1339 Кбит/сек
Программа кодирования : Lavf52.93.0
Видео
Идентификатор : 0
Формат : xvid
Идентификатор кодека : xvid
Продолжительность : 1 ч. 39 м.
Битрейт : 1134 Кбит/сек
Ширина : 640 пикселей
Высота : 480 пикселей
Соотношение сторон : 4:3
Частота кадров : 25,000 кадров/сек
Бит/(Пиксели*Кадры) : 0.148
Размер потока : 805 Мбайт (85%)
Аудио
Идентификатор : 1
Формат : MPEG Audio
Версия формата : Version 1
Профиль формата : Layer 3
Режим : Joint stereo
Расширение режима : MS Stereo
Идентификатор кодека : 55
Идентификатор кодека/Подсказка : MP3
Продолжительность : 1 ч. 39 м.
Вид битрейта : Постоянный
Битрейт : 192 Кбит/сек
Каналы : 2 канала
Частота : 48,0 КГц
Метод сжатия : С потерями
Размер потока : 136 Мбайт (14%)
Выравнивание : Соединение по промежуткам
Продолжительность промежутка : 24 мс. (0,60 видеокадр)
Библиотека кодирования : LAME3.98.4

Дополнительная информация:

Сюжет этой киноленты настолько захватывающе интересен, что практически не оставляет шансов оторваться от экрана. Фильм по всему миру уже посмотрело огромное число зрителей, а его рейтинги по-прежнему на высоте.
«Долину волков» переиздавали, запрещали, снова снимали…
Этот напряженный, криминальный сериал о могущественной преступной группировке и о людях, которые ей противостоят, стал одним из самых популярных в Турции. Цель банды, которая, кстати, держится на строжайшей дисциплине и военной иерархии, держать контроль над всей Турцией.
Теленовелла «Долина волков» стала одной из самых эпатажных в истории турецкого кинематографа из-за того, что в ней есть множество ссылок к различным историческим событиям, которые и вызвали возмущение многих стран, которые доказывали, что фильм нужно запретить.

Внимание! Раздача ведётся путём добавления новых серий

Внимание! Раздача ведётся путём добавления новых серий; при каждом добавлении создаётся новый торрент.
Чтобы начать докачку новой серии, пользователям необходимо сделать следующее:
1. Остановить скачивание;
2. Удалить старый торрент у себя из клиента (старые серии удалять не надо);
3. Скачать новый торрент и запустить его у себя в клиенте вместо старого, при этом указать клиенту путь в старую папку куда и должно происходить скачивание новых серий. Ваш клиент при этом должен произвести хеширование (проверку) старой папки и будет докачивать только те серии, которых у вас ещё нет. Старые серии при этом не удаляются, а продолжают раздаваться! Eсли вы уже удалили старые серии, то предотвратить повторную закачку старых серий можно, отжав галочку в соответствующих местах при запуске нового торрента.
Скриншоты:
       
Вне форума [Профиль] [ЛС]
Показать сообщения:    
Ответить на тему

Текущее время: Сегодня 02:06

Часовой пояс: GMT + 3



Вы не можете начинать темы
Вы не можете отвечать на сообщения
Вы не можете редактировать свои сообщения
Вы не можете удалять свои сообщения
Вы не можете голосовать в опросах
Вы не можете прикреплять файлы к сообщениям
Вы не можете скачивать файлы