Сегодня идет свободное скачивание без начисления Download

Злые птички / Angry Birds Toons (Ким Хельминен) (Компьютерная анимация, комедия, приключения 2013) WEB-DLRip (1 сезон, 29 серий из 52) (обновляемая)

Ответить на тему
 
Автор
Сообщение

Omen ®

Стаж: 4 года 10 месяцев

Сообщений: 190643

Торрент-статистика

Пост 10-Авг-2013 17:30

[Цитировать]

Злые птички / Angry Birds Toons- Русское название: Злые птички (Сердитые птички)
Оригинальное название: Angry Birds Toons
Год выпуска: 2013
Сезон: 1 (Первый)
Страна: Финляндия
Жанр: Компьютерная анимация, комедия, приключения
Перевод: Без слов / Немой
Режиссер: Ким Хельминен
Роли озвучивали: Антти Паконен, Линне Гаглионе, Хелья Хейккинен
Описание фильма:
Мульсериал студии Rovio о мегапопулярных Злых птичках. Почему эти существа настолько злые, а Свиней называют Королевскими? Ответим на все вопросы!)
Продолжительность: 29 x ~ 00:02:45
Видеокодек: XviD
Битрейт видео: ~2400 Кбит/сек
Размер кадра: 720 x 400
Качество видео: WEB-DLRip
Аудиокодек: MP3 2.0
Битрейт аудио: 128 Кбит/сек
Злые птички / Angry Birds Toons (1 сезон) [H.264/720p-LQ] (2013) WEB-DLRip (обновляемая)

Список серий (1 сезон)

01. Время Чака | Chuck Time
02. Где моя корона? | Where's My Crown?
03. Цельнометаллический Чак | Full Metall Chuck
04. Ещё один день рождения | Another Birthday
05. Звуки из яиц | Egg Sounds
06. Свиньи таланты | Pig Telent
07. Гордон Бе-е! | Gordon Bleugh!
08. Чисто голубой? | True Blue?
09. Делай как я сказала! | Do as I Say!
10. Выходной | Off Duty
11. Рогатка 101 | Slingshot 101
12. Громовой Чак | Thunder Chuck
13. Сад с Теренсом | Gardening with Terence
14. Растяпы на верёвке | Dopeys on a Rope
15. Троянское яйцо | Trojan Egg
16. Внимательный осмотр | Double Take
17. Свиньи для Краш-Теста | Crash Test Piggies
18. Беспечный дурак | Slappy Go Lucky
19. Тише едешь-дальше будешь! | Sneezy Does It
20. Беги, Чак, беги | Run Chuck Run
21. Гипносвиньи | Hypno Pigs
22. Яйцо не дома | Eggs Day Out
23. Воротокрушитель | Gate Crasher
24. Жареная свинья | Hog Roast
25. Птица, которая кричала: "Свинья" | The Bird That Cried : "Pig"
26. Побег из Свиношенка | HamShank Redemption
27. Суп из зелёных свиней | Green Pig Soup
28. День нападения | Catch Of The Day
29. Ночная колыбельная Теренса | Nighty Night Terence
Бонус-видео: Познакомьтесь со стаей | Meet the flock

Техданные

Общее
Полное имя : \Angry Birds Toons.2013.WEB-DLRip\01. Chuck Time.2013.WEB-DLRip.avi
Формат : AVI
Формат/Информация : Audio Video Interleave
Размер файла : 33,9 Мбайт
Продолжительность : 2 м. 45 с.
Общий поток : 1723 Кбит/сек
Программа кодирования : VirtualDubMod 1.5.10.3 (build 2550/release)
Библиотека кодирования : VirtualDubMod build 2550/release
Видео
Идентификатор : 0
Формат : MPEG-4 Visual
Профиль формата : Advanced Simple@L5
Параметр BVOP формата : 2
Параметр QPel формата : Нет
Параметр GMC формата : Без точки перехода
Параметр матрицы формата : Выборочная
Идентификатор кодека : XVID
Идентификатор кодека/Подсказка : XviD
Продолжительность : 2 м. 45 с.
Битрейт : 1583 Кбит/сек
Ширина : 720 пикселей
Высота : 400 пикселей
Соотношение сторон : 16:9
Частота кадров : 30,000 кадров/сек
Цветовое пространство : YUV
Субдискретизация насыщенности : 4:2:0
Битовая глубина : 8 бит
Тип развёртки : Прогрессивная
Метод сжатия : С потерями
Бит/(Пиксели*Кадры) : 0.183
Размер потока : 31,1 Мбайт (92%)
Библиотека кодирования : XviD 65
Аудио
Идентификатор : 1
Формат : MPEG Audio
Версия формата : Version 1
Профиль формата : Layer 3
Режим : Joint stereo
Идентификатор кодека : 55
Идентификатор кодека/Подсказка : MP3
Продолжительность : 2 м. 45 с.
Вид битрейта : Постоянный
Битрейт : 128 Кбит/сек
Каналы : 2 канала
Частота : 44,1 КГц
Метод сжатия : С потерями
Размер потока : 2,52 Мбайт (7%)
Выравнивание : Разделение по промежуткам
Продолжительность промежутка : 33 мс. (1,00 видеокадр)
Время предзагрузки промежутка : 500 мс.
Библиотека кодирования : LAME3.99r
Настройки программы : -m j -V 4 -q 3 -lowpass 17 -b 128

Внимание! Раздача ведётся путём добавления новых серий

Внимание! Раздача ведётся путём добавления новых серий; при каждом добавлении создаётся новый торрент.
Чтобы начать докачку новой серии, пользователям необходимо сделать следующее:
(1) остановить скачивание;
(2) удалить старый торрент у себя из клиента (старые серии удалять не надо);
(3) скачать новый торрент и запустить его у себя в клиенте вместо старого, при этом указать клиенту путь в старую папку куда и должно происходить скачивание новых серий. Ваш клиент при этом должен произвести хеширование (проверку) старой папки (если не производит сам - помогите ему сделать это), и будет докачивать только те серии, которых у Вас ещё нет. Старые серии при этом не удаляются, а продолжают раздаваться! Если Вы уже удалили старые серии, то предотвратить повторную закачку старых серий можно, отжав галочку в соответствующих местах при запуске нового торрента.
Скриншоты:
         
Вне форума [Профиль] [ЛС]
Показать сообщения:    
Ответить на тему

Текущее время: Сегодня 11:50

Часовой пояс: GMT + 3



Вы не можете начинать темы
Вы не можете отвечать на сообщения
Вы не можете редактировать свои сообщения
Вы не можете удалять свои сообщения
Вы не можете голосовать в опросах
Вы не можете прикреплять файлы к сообщениям
Вы не можете скачивать файлы