Сегодня идет свободное скачивание без начисления Download

Муми-Тролли / Tanoshii Moomin Ikka / Moomin(Delightful Moomin Family) (приключения,комедия,семейный 1990) DVDRip (78 серий)

Ответить на тему
 
Автор
Сообщение

Omen ®

Стаж: 4 года 10 месяцев

Сообщений: 190643

Торрент-статистика

Пост 10-Авг-2013 15:23

[Цитировать]

Муми-Тролли
Tanoshii Moomin Ikka / Moomin(Delightful Moomin Family) (78 серий)
- Русское название: Муми-Тролли
Оригинальное название: Tanoshii Moomin Ikka / Moomin (Delightful Moomin Family)
Год выпуска: 1990
Жанр: приключения,комедия,семейный
Перевод: Многоголосовый, закадровый
Производство/студия: TV Tokyo
Автор оригинала: Туве Янссон
Режиссер: Сайто Хироси
Описание:
Этот сериал основан на серии книг про Мумитроллей финского писателя и иллюстратора Туве Янссон, создан Telecable Benelux BV 1990-1992 годах. В общей сложности было сделано 104 эпизода. Сериал создал "Муми-бум" 90-х годов, однако многие серии "адаптированы" по сравнению с оригинальными книгами Туве Янсон, которые критиковались как весьма тёмные и страшные для детей. Сюжеты здесь мягче и симпатичней. Это продолжение восхитительных историй семьи Мумитроллей после мультфильма "Комета прилетает" по книге с одноименным названием. Сериал выходил в эфир во многих странах.

Количество серий: 78
Продолжительность: 78 серий по ~ 00:23:00
Видеокодек: Xvid, DivX 5
Битрейт видео: ~1100 - 1949 kb/s
Размер кадра: (1-8,10-13,15) 720x544; (9) 720x576; (14,16-78) 640x480
Качество видео: DVDRip
Аудио: MPEG Audio Layer 3, 48000Hz stereo, 128kbps (русский)

MediaInfo:

Код:
Общее
Полное имя                               : E:\uTorDown\uTorrent\Moomin_rus\Moomins_ep1_Spring_in_Moomin_Valley_rus.avi
Формат                                   : AVI
Формат/Информация                        : Audio Video Interleave
Размер файла                             : 209 Мбайт
Продолжительность                        : 23 м.
Общий поток                              : 1253 Кбит/сек
Программа кодирования                    : VirtualDubMod 1.5.4.1 (build 2178/release)
Библиотека кодирования                   : VirtualDub build 30080/release
Видео
Идентификатор                            : 0
Формат                                   : MPEG-4 Visual
Профиль формата                          : Advanced Simple@L5
Параметр BVOP формата                    : 1
Параметр QPel формата                    : Нет
Параметр GMC формата                     : Без точки перехода
Параметр матрицы формата                 : Выборочная
Идентификатор кодека                     : XVID
Идентификатор кодека/Подсказка           : XviD
Продолжительность                        : 23 м.
Битрейт                                  : 1115 Кбит/сек
Ширина                                   : 720 пикселей
Высота                                   : 544 пикселя
Соотношение сторон                       : 4:3
Частота кадров                           : 25,000 кадров/сек
Цветовое пространство                    : YUV
Субдискретизация насыщенности            : 4:2:0
Битовая глубина                          : 8 бит
Тип развёртки                            : Прогрессивная
Метод сжатия                             : С потерями
Бит/(Пиксели*Кадры)                      : 0.114
Размер потока                            : 186 Мбайт (89%)
Библиотека кодирования                   : XviD 1.2.1 (UTC 2008-12-04)
Аудио
Идентификатор                            : 1
Формат                                   : MPEG Audio
Версия формата                           : Version 1
Профиль формата                          : Layer 3
Режим                                    : Joint stereo
Расширение режима                        : MS Stereo
Идентификатор кодека                     : 55
Идентификатор кодека/Подсказка           : MP3
Продолжительность                        : 23 м.
Вид битрейта                             : Постоянный
Битрейт                                  : 128 Кбит/сек
Каналы                                   : 2 канала
Частота                                  : 48,0 КГц
Метод сжатия                             : С потерями
Размер потока                            : 21,3 Мбайт (10%)
Выравнивание                             : Разделение по промежуткам
Продолжительность промежутка             : 40  мс. (1,00 видеокадр)
Время предзагрузки промежутка            : 500  мс.
Библиотека кодирования                   : LAME3.98 (alpha)

Тех. данные ко всем эпизодам

1-7 серии
Качество: DVDRip
Формат: AVI
Видео:XVID 720x544 25.00fps ~1500Kbps
Аудио:MPEG Audio Layer 3 48000Hz stereo 128Kbps(RUS)
8,10-13,15 серия
Качество: DVDRip
Формат: AVI
Видео:XVID 720x544 25.00fps ~1100Kbps
Аудио1:MPEG Audio Layer 3 48000Hz stereo 192Kbps(RUS)
Аудио2:MPEG Audio Layer 3 48000Hz stereo 120Kbps(ENG)
9 серия
Качество: DVDRip
Формат: AVI
Видео:XVID 720x576 25.00fps 1949Kbps
Аудио1:MPEG Audio Layer 3 44100Hz stereo 128Kbps(RUS)
Аудио2:MPEG Audio Layer 3 48000Hz stereo 160Kbps(ENG)
14,16-18 серия
Качество: DVDRip
Формат: AVI
Видео:DivX 5 640x480 23.98fps 1762Kbps
Аудио1:MPEG Audio Layer 3 48000Hz stereo 192kbps(RUS)
Аудио2:MPEG Audio Layer 3 24000Hz stereo 56kbps(JPN)
19-78 серия
Качество: DVDRip
Формат: AVI
Видео:DivX 5 640x480 23.98fps ~1500Kbps
Аудио:MPEG Audio Layer 3 48000Hz stereo 128kbps(RUS)

Эпизоды:

01. Spring in Moominvalley
02. Magic Hat
03. Shipwreck Found on the Beach
04. Welcome to Ghost Island
05. Nyoronyoro's Secret
06. Small, Small Visitor
07. What's Inside the Suitcase
08. Magic Trick of the Flying Demon
09. Invisible Friend
10. Ninny Gets Her Smile Back
11. Snork Flies in the Sky
12. Moomin Fights a Pirate
13. Last Dragon on the Earth
14. The Nextdoor Neighbor is a PTA Mom
15. Floren Gets Amnesia
16. A Martian in Moominvalley!
17. Moominpappa Runs Away
18. Magic Seed from the Sea
19. Moominvalley's Jungle
20. Moomin Saves the Tigers
21. Snufkin Departs on a Journey
22. Moomin and Mee's Big Adventure
23. Moominvalley's Winter Inhabitants
24. Snufkin Doesn't Come Back
25. On Papa's Dream
26. Days When the Lighthouse Shines a Light
27. Rich Mrs. Jane
28. Floating Haunted House
29. Separated Family
30. Reunited
31. Snork's Flying Ship
32. Rare Goldfish
33. Make a Wish to the Lamp
34. Mee Gets on a Kite
35. The Witch Comes Home
36. What's Christmas?
37. Festival of the Winter Creatures
38. Sleep Magic
39. Mysterious Sound in the Middle of the Night
40. Secret of Fireworks
41. Strange Incident in Moominvalley
42. Magic Broom
43. Heroine of the Circus
44. Wonderful Birthday
45. The House Built by Moomin
46. Papa's Rich?
47. A Hot Spring Appears!
48. Moomin Rides on a Bubble
49. Mama's Secret
50. Voice from Inside the Dead Tree
51. Floren's Psychic Powers
52. Water Fairy
53. Treasure Hunt Uproar
54. Gift for Mimura
55. Sad Papa
56. Mama Departs on a Journey
57. Floren Raises a Child
58. Contest in Moominvalley
59. Papa's Memories
60. Mee's Prank
61. Moomin's a Genius Fortuneteller
62. Magic Word
63. Adventure of the Ship Orchestra
64. The Day of Leaving the Nest
65. Moomin's Secret
66. Vampire of Moominvalley
67. Papa's Important Seat is Broken
68. Fateful Meeting with Mama
69. Crisis with the Immortal Bird
70. Making up at the Fish Party
71. Identity of the Glowing Mushroom
72. Friendship of Moomin and the Dolphin
73. Moomin's Explorer Team
74. Singing Flower Present
75. Moomin's Lovely Dream
76. Broken House
77. Finished! Flying Ship
78. Moomin into the Open Skies

еще инфо про перевод

1-ый эпизод
Перевод: tuya
Редактирование перевода и сведение звука: Stalk
Озвучивание: PinkSnake и Stalk-2-7-ой и 9-ый эпизоды
Перевод: Сhuzzy(2ой эпизод),tuya(3-6,9 эпизоды),dormouse_jenny(7 серия)-8-й,10-18-й эпизод
Перевод: tuya(8,12,13),Castiel(10,11), --ai--(14,18 серия),Женя Снегирева(15 серия), obrany(16 серия), mipora(17 серия)
Озвучивание: Лира Грим, Ольга Викторова, Алексей Кузнецов (8,10-13,15 серии)
Озвучивание: Лира Грим, Anna_Smile, Алексей Кузнецов (14,16-18 серии)-19-78-ый эпизоды
Перевод: Профессиональный (многоголосый закадровый) Телеканал МИР

Дополнительная информация:

«В этом мире есть место абсолютно для всего на свете. Отсутствие здравого смысла переплетается с железной логикой. Есть в этом нечто от сюрреализма, от сновидений, от реальности каждого дня в его фантастическом обрамлении...» Туве Янссон.
Скриншоты:
       
         
Вне форума [Профиль] [ЛС]
Показать сообщения:    
Ответить на тему

Текущее время: Сегодня 03:53

Часовой пояс: GMT + 3



Вы не можете начинать темы
Вы не можете отвечать на сообщения
Вы не можете редактировать свои сообщения
Вы не можете удалять свои сообщения
Вы не можете голосовать в опросах
Вы не можете прикреплять файлы к сообщениям
Вы не можете скачивать файлы