Today is a free download without charge Download

(Rock, Jazz Rock, Pop Rock, Soft Rock, Blues Rock) Chicago - Studio Albums 1969-1978 (10CD Box Set) - 2012 (Rhino Records/Warner Bros UK), FLAC (image+.cue), lossless

Reply to topic
 
Author
Message

Omen ®

Longevity: 8 years 7 months

Posts: 181087

Торрент-статистика

Post 10-Aug-2013 00:55

[Quote]

Chicago - Studio Albums 1969-1978
Жанр: Rock, Jazz Rock, Pop Rock, Soft Rock, Blues Rock
Страна-производитель диска: UK
Год издания диска: 2012
Издатель (лейбл): Rhino Records/Warner Bros
Номер по каталогу: 8122796958
Страна: USA
Аудио кодек: FLAC (*.flac)
Тип рипа: image+.cue
Битрейт аудио: lossless
Продолжительность: 11:08:51
Источник (релизер): ALLexxess
Наличие сканов в содержимом раздачи:
Треклист:

1969 - Chicago Transit Authority 01:16:36

01. Introduction 06:35
02. Does Anybody Really Know What Time It Is? 04:36
03. Beginnings 07:54
04. Questions 67 And 68 05:02
05. Listen 03:21
06. Poem 58 08:37
07. Free Form Guitar 06:47
08. South California Purples 06:11
09. I'm A Man 07:39
10. Prologue, August 29, 1968 00:57
11. Someday (August 29, 1968) 04:13
12. Liberation 14:38

Лог создания рипа

Exact Audio Copy V1.0 beta 3 from 29. August 2011
EAC extraction logfile from 6. August 2013, 19:13
Chicago / Chicago Transit Authority
Used drive : PLEXTOR BD-R PX-B950SA Adapter: 6 ID: 0
Read mode : SecureUtilize accurate stream : YesDefeat audio cache : YesMake use of C2 pointers : No
Read offset correction : 6Overread into Lead-In and Lead-Out : NoFill up missing offset samples with silence : YesDelete leading and trailing silent blocks : NoNull samples used in CRC calculations : YesUsed interface : Native Win32 interface for Win NT & 2000
Used output format : Internal WAV RoutinesSample format : 44.100 Hz; 16 Bit; Stereo
TOC of the extracted CD
Track | Start | Length | Start sector | End sector --------------------------------------------------------- 1 | 0:00.00 | 6:35.22 | 0 | 29646 2 | 6:35.22 | 4:36.40 | 29647 | 50386 3 | 11:11.62 | 7:54.10 | 50387 | 85946 4 | 19:05.72 | 5:02.60 | 85947 | 108656 5 | 24:08.57 | 3:21.50 | 108657 | 123781 6 | 27:30.32 | 8:37.63 | 123782 | 162619 7 | 36:08.20 | 6:47.32 | 162620 | 193176 8 | 42:55.52 | 6:11.35 | 193177 | 221036 9 | 49:07.12 | 7:39.70 | 221037 | 255531 10 | 56:47.07 | 0:57.35 | 255532 | 259841 11 | 57:44.42 | 4:13.30 | 259842 | 278846 12 | 61:57.72 | 14:38.50 | 278847 | 344746
Range status and errors
Selected range
Filename C:\Users\Meijin\Desktop\Lossless Galaxy ALLexxess\Chicago\2012 Studio Albums 1969-1978 (10CD Box Set Rhino Records)\1969 Chicago Transit Authority\Chicago - Chicago Transit Authority.wav
Peak level 98.9 % Extraction speed 8.7 X Range quality 100.0 % Test CRC F3DBDFEA Copy CRC F3DBDFEA Copy OK
No errors occurred
AccurateRip summary
Track 1 accurately ripped (confidence 17) [195E2A9B] (AR v2)Track 2 accurately ripped (confidence 17) [CD0AD758] (AR v2)Track 3 accurately ripped (confidence 17) [414012FA] (AR v2)Track 4 accurately ripped (confidence 17) [3DE8CB5D] (AR v2)Track 5 accurately ripped (confidence 17) [9B47A0D8] (AR v2)Track 6 accurately ripped (confidence 17) [9ACFF801] (AR v2)Track 7 accurately ripped (confidence 17) [62E659CB] (AR v2)Track 8 accurately ripped (confidence 17) [DE6D4708] (AR v2)Track 9 accurately ripped (confidence 17) [E96631BC] (AR v2)Track 10 accurately ripped (confidence 17) [8D1447F5] (AR v2)Track 11 accurately ripped (confidence 17) [5B628A43] (AR v2)Track 12 accurately ripped (confidence 17) [8017A7A1] (AR v2)
All tracks accurately ripped
End of status report
==== Log checksum CCD7B85CEA3916AE0F71958DAE82E04342C79488F0BF2AD52FB4194947C2474E ====

Содержание индексной карты (.CUE)

REM GENRE "Rock / Jazz Rock / Pop Rock"REM DATE 1969REM DISCID B811F40CREM COMMENT "ExactAudioCopy v1.0b3"PERFORMER "Chicago"TITLE "Chicago Transit Authority"FILE "Chicago - Chicago Transit Authority.flac" WAVE TRACK 01 AUDIO TITLE "Introduction" PERFORMER "Chicago" INDEX 01 00:00:00 TRACK 02 AUDIO TITLE "Does Anybody Really Know What Time It Is?" PERFORMER "Chicago" INDEX 01 06:35:22 TRACK 03 AUDIO TITLE "Beginnings" PERFORMER "Chicago" INDEX 00 11:10:22 INDEX 01 11:11:62 TRACK 04 AUDIO TITLE "Questions 67 And 68" PERFORMER "Chicago" INDEX 01 19:05:72 TRACK 05 AUDIO TITLE "Listen" PERFORMER "Chicago" INDEX 01 24:08:57 TRACK 06 AUDIO TITLE "Poem 58" PERFORMER "Chicago" INDEX 01 27:30:32 TRACK 07 AUDIO TITLE "Free Form Guitar" PERFORMER "Chicago" INDEX 00 36:05:50 INDEX 01 36:08:20 TRACK 08 AUDIO TITLE "South California Purples" PERFORMER "Chicago" INDEX 01 42:55:52 TRACK 09 AUDIO TITLE "I'm A Man" PERFORMER "Chicago" INDEX 01 49:07:12 TRACK 10 AUDIO TITLE "Prologue, August 29, 1968" PERFORMER "Chicago" INDEX 00 56:45:57 INDEX 01 56:47:07 TRACK 11 AUDIO TITLE "Someday (August 29, 1968)" PERFORMER "Chicago" INDEX 01 57:44:42 TRACK 12 AUDIO TITLE "Liberation" PERFORMER "Chicago" INDEX 00 61:55:32 INDEX 01 61:57:72

Лог проверки качества

-----------------------
DON'T MODIFY THIS FILE
-----------------------
PERFORMER: auCDtect Task Manager, ver. 1.5.1RC3 build 1.5.1.4Copyright (c) 2008-2010 y-soft. All rights reservedhttp://y-soft.org
ANALYZER: auCDtect: CD records authenticity detector, version 0.8.2Copyright (c) 2004 Oleg Berngardt. All rights reserved.Copyright (c) 2004 Alexander Djourik. All rights reserved.
FILE: Chicago - Chicago Transit Authority.wav Size: 810844988 Hash: 255AF361AEA3CF3A5679D6461AF33691 Accuracy: -m8 Conclusion: CDDA 100% Signature: CCE3B2EAEB246FED06EDB98DB05F844B628F8C43FILE: Chicago - Chicago Transit Authority.flac Size: 518857947 Hash: 255AF361AEA3CF3A5679D6461AF33691 Accuracy: -m8 Conclusion: CDDA 100% Signature: ACF2F13D6DE6122FE94F1C958D2480E1EDBA89F8

Back, Disc, Matrix, Spectrogram

1970 - Chicago 01:13:21

01. Movin' In 04:06
02. The Road 03:10
03. Poem For The People 05:35
04. In The Country 06:35
05. Wake Up Sunshine 02:32
Ballet For A Girl In Buchannon (Tracks 6-12):
06. Make Me Smile 03:15
07. So Much To Say, So Much To Give 01:12
08. Anxiety's Moment 01:00
09. West Virgina Fantasies 01:33
10. Colour My World 03:00
11. To Be Free 01:15
12. Now More Than Ever 01:25
----------
13. Fancy Colours 05:10
14. 25 Or 6 To 4 04:58
Memories Of Love (Tracks 15-18):
15. Prelude 01:09
16. A.M. Mourning 02:05
17. P.M. Mourning 01:58
18. Memories Of Love 03:59
It Better End Soon (Tracks 19-23):
19. 1st Movement 02:32
20. 2nd Movement 03:41
21. 3rd Movement 03:18
22. 4th Movement 00:55
23. Where Do We Go From Here 02:33
Bonus Selections:
24. Make Me Smile (Single Version) 03:00
25. 25 Or 6 To 4 (Single Version) 02:53

Лог создания рипа

Exact Audio Copy V1.0 beta 3 from 29. August 2011
EAC extraction logfile from 5. August 2013, 19:57
Chicago / Chicago
Used drive : PLEXTOR BD-R PX-B950SA Adapter: 6 ID: 0
Read mode : SecureUtilize accurate stream : YesDefeat audio cache : YesMake use of C2 pointers : No
Read offset correction : 6Overread into Lead-In and Lead-Out : NoFill up missing offset samples with silence : YesDelete leading and trailing silent blocks : NoNull samples used in CRC calculations : YesUsed interface : Native Win32 interface for Win NT & 2000
Used output format : Internal WAV RoutinesSample format : 44.100 Hz; 16 Bit; Stereo
TOC of the extracted CD
Track | Start | Length | Start sector | End sector --------------------------------------------------------- 1 | 0:00.00 | 4:06.25 | 0 | 18474 2 | 4:06.25 | 3:10.17 | 18475 | 32741 3 | 7:16.42 | 5:35.48 | 32742 | 57914 4 | 12:52.15 | 6:35.37 | 57915 | 87576 5 | 19:27.52 | 2:32.50 | 87577 | 99026 6 | 22:00.27 | 3:15.33 | 99027 | 113684 7 | 25:15.60 | 1:12.07 | 113685 | 119091 8 | 26:27.67 | 1:00.50 | 119092 | 123641 9 | 27:28.42 | 1:33.50 | 123642 | 130666 10 | 29:02.17 | 3:00.50 | 130667 | 144216 11 | 32:02.67 | 1:15.00 | 144217 | 149841 12 | 33:17.67 | 1:25.70 | 149842 | 156286 13 | 34:43.62 | 5:10.03 | 156287 | 179539 14 | 39:53.65 | 4:58.22 | 179540 | 201911 15 | 44:52.12 | 1:09.33 | 201912 | 207119 16 | 46:01.45 | 2:05.47 | 207120 | 216541 17 | 48:07.17 | 1:58.05 | 216542 | 225396 18 | 50:05.22 | 3:59.03 | 225397 | 243324 19 | 54:04.25 | 2:32.72 | 243325 | 254796 20 | 56:37.22 | 3:41.03 | 254797 | 271374 21 | 60:18.25 | 3:18.32 | 271375 | 286256 22 | 63:36.57 | 0:55.70 | 286257 | 290451 23 | 64:32.52 | 2:53.45 | 290452 | 303471 24 | 67:26.22 | 3:00.55 | 303472 | 317026 25 | 70:27.02 | 2:53.68 | 317027 | 330069
Range status and errors
Selected range
Filename C:\Users\Meijin\Desktop\Lossless Galaxy ALLexxess\Chicago\2012 Studio Albums 1969-1978 (10CD Box Set Rhino Records)\1970 Chicago\Chicago - Chicago.wav
Peak level 98.9 % Extraction speed 8.6 X Range quality 100.0 % Test CRC 74E0571C Copy CRC 74E0571C Copy OK
No errors occurred
AccurateRip summary
Track 1 accurately ripped (confidence 16) [D4ABD531] (AR v2)Track 2 accurately ripped (confidence 16) [FC0EDBCC] (AR v2)Track 3 accurately ripped (confidence 16) [A909B72D] (AR v2)Track 4 accurately ripped (confidence 16) [DC5843C3] (AR v2)Track 5 accurately ripped (confidence 16) [AC3AC577] (AR v2)Track 6 accurately ripped (confidence 16) [90D5BF30] (AR v2)Track 7 accurately ripped (confidence 16) [5F18335A] (AR v2)Track 8 accurately ripped (confidence 16) [CFF2E887] (AR v2)Track 9 accurately ripped (confidence 16) [42BB647F] (AR v2)Track 10 accurately ripped (confidence 16) [4E3C4832] (AR v2)Track 11 accurately ripped (confidence 16) [206C7FC4] (AR v2)Track 12 accurately ripped (confidence 16) [2D4744ED] (AR v2)Track 13 accurately ripped (confidence 16) [1B958363] (AR v2)Track 14 accurately ripped (confidence 16) [26D1083A] (AR v2)Track 15 accurately ripped (confidence 16) [6BDFF08C] (AR v2)Track 16 accurately ripped (confidence 16) [B08DC86D] (AR v2)Track 17 accurately ripped (confidence 16) [E2F5AF03] (AR v2)Track 18 accurately ripped (confidence 16) [111F0C3F] (AR v2)Track 19 accurately ripped (confidence 16) [D09F38DD] (AR v2)Track 20 accurately ripped (confidence 16) [8BDF269D] (AR v2)Track 21 accurately ripped (confidence 16) [222B2330] (AR v2)Track 22 accurately ripped (confidence 16) [8CBA18D9] (AR v2)Track 23 accurately ripped (confidence 16) [626BA9DD] (AR v2)Track 24 accurately ripped (confidence 16) [5BFA57CC] (AR v2)Track 25 accurately ripped (confidence 16) [D9B3AF2E] (AR v2)
All tracks accurately ripped
End of status report
==== Log checksum 95E90353607E380BB4312A78C4601EF039E5595E2C33AAF1B24CDDE41389803A ====

Содержание индексной карты (.CUE)

REM GENRE "Rock / Jazz Rock / Pop Rock"REM DATE 1970REM DISCID A3113019REM COMMENT "ExactAudioCopy v1.0b3"PERFORMER "Chicago"TITLE "Chicago"FILE "Chicago - Chicago.flac" WAVE TRACK 01 AUDIO TITLE "Movin' In" PERFORMER "Chicago" INDEX 01 00:00:00 TRACK 02 AUDIO TITLE "The Road" PERFORMER "Chicago" INDEX 01 04:06:25 TRACK 03 AUDIO TITLE "Poem For The People" PERFORMER "Chicago" INDEX 01 07:16:42 TRACK 04 AUDIO TITLE "In The Country" PERFORMER "Chicago" INDEX 00 12:47:52 INDEX 01 12:52:15 TRACK 05 AUDIO TITLE "Wake Up Sunshine" PERFORMER "Chicago" INDEX 00 19:26:07 INDEX 01 19:27:52 TRACK 06 AUDIO TITLE "Ballet For A Girl In Buchannon: Make Me Smile" PERFORMER "Chicago" INDEX 00 21:56:62 INDEX 01 22:00:27 TRACK 07 AUDIO TITLE "Ballet For A Girl In Buchannon: So Much To Say, So Much To Give" PERFORMER "Chicago" INDEX 01 25:15:60 TRACK 08 AUDIO TITLE "Ballet For A Girl In Buchannon: Anxiety's Moment" PERFORMER "Chicago" INDEX 01 26:27:67 TRACK 09 AUDIO TITLE "Ballet For A Girl In Buchannon: West Virginia Fantasies" PERFORMER "Chicago" INDEX 01 27:28:42 TRACK 10 AUDIO TITLE "Ballet For A Girl In Buchannon: Colour My World" PERFORMER "Chicago" INDEX 01 29:02:17 TRACK 11 AUDIO TITLE "Ballet For A Girl In Buchannon: To Be Free" PERFORMER "Chicago" INDEX 01 32:02:67 TRACK 12 AUDIO TITLE "Ballet For A Girl In Buchannon: Now More Than Ever" PERFORMER "Chicago" INDEX 01 33:17:67 TRACK 13 AUDIO TITLE "Fancy Colours" PERFORMER "Chicago" INDEX 01 34:43:62 TRACK 14 AUDIO TITLE "25 Or 6 To 4" PERFORMER "Chicago" INDEX 01 39:53:65 TRACK 15 AUDIO TITLE "Memories Of Love: Prelude" PERFORMER "Chicago" INDEX 00 44:43:45 INDEX 01 44:52:12 TRACK 16 AUDIO TITLE "Memories Of Love: A.M. Mourning" PERFORMER "Chicago" INDEX 01 46:01:45 TRACK 17 AUDIO TITLE "Memories Of Love: P.M. Mourning" PERFORMER "Chicago" INDEX 01 48:07:17 TRACK 18 AUDIO TITLE "Memories Of Love: Memories Of Love" PERFORMER "Chicago" INDEX 01 50:05:22 TRACK 19 AUDIO TITLE "It Better End Soon: 1st Movement" PERFORMER "Chicago" INDEX 01 54:04:25 TRACK 20 AUDIO TITLE "It Better End Soon: 2nd Movement" PERFORMER "Chicago" INDEX 01 56:37:22 TRACK 21 AUDIO TITLE "It Better End Soon: 3rd Movement" PERFORMER "Chicago" INDEX 01 60:18:25 TRACK 22 AUDIO TITLE "It Better End Soon: 4th Movement" PERFORMER "Chicago" INDEX 01 63:36:57 TRACK 23 AUDIO TITLE "It Better End Soon: Where Do We Go From Here" PERFORMER "Chicago" INDEX 00 64:28:13 INDEX 01 64:32:52 TRACK 24 AUDIO TITLE "Make Me Smile (Single Version) / Bonus" PERFORMER "Chicago" INDEX 00 67:21:57 INDEX 01 67:26:22 TRACK 25 AUDIO TITLE "25 Or 6 To 4 (Single Version) / Bonus" PERFORMER "Chicago" INDEX 00 70:25:17 INDEX 01 70:27:02

Лог проверки качества

-----------------------
DON'T MODIFY THIS FILE
-----------------------
PERFORMER: auCDtect Task Manager, ver. 1.5.1RC3 build 1.5.1.4Copyright (c) 2008-2010 y-soft. All rights reservedhttp://y-soft.org
ANALYZER: auCDtect: CD records authenticity detector, version 0.8.2Copyright (c) 2004 Oleg Berngardt. All rights reserved.Copyright (c) 2004 Alexander Djourik. All rights reserved.
FILE: Chicago - Chicago.wav Size: 776324684 Hash: 65CAA63D9E526EA6B71B679C5C49F9B3 Accuracy: -m8 Conclusion: CDDA 100% Signature: FE96DF9180B8683A4BF096334C1F7AD8FE49F0D3FILE: Chicago - Chicago.flac Size: 470801553 Hash: 65CAA63D9E526EA6B71B679C5C49F9B3 Accuracy: -m8 Conclusion: CDDA 100% Signature: A788F3F22A3DF7A998AA78830850B2A1325BEFB9

Back, Disc, Matrix, Spectrogram

1971 - Chicago III 01:11:30

01. Sing A Mean Tune Kid 09:18
02. Loneliness Is Just A Word 02:38
03. What Else Can I Say 03:13
04. I Don't Want Your Money 04:47
Travel Suite (Tks 5-10):
05. Flight 602 02:44
06. Motorboat To Mars 01:30
07. Free 02:15
08. Free Country 05:46
09. At The Sunrise 02:48
10. Happy 'Cause I'm Going Home 07:28
----------
11. Mother 04:31
12. Lowdown 03:36
An Hour In The Shower (Tks 13-17):
13. A Hard Risin' Morning Without Breakfast 01:52
14. Off To Work 00:45
15. Fallin' Out 00:53
16. Dreamin' Home 00:49
17. Morning Blues Again 01:11
Elegy (Tks 18-23):
18. When All The Laughter Dies In Sorrow 01:03
19. Canon 01:05
20. Once Upon A Time... 02:34
21. Progress? 02:34
22. The Approaching Storm 06:26
23. Man Vs. Man: The End 01:34

Лог создания рипа

Exact Audio Copy V1.0 beta 3 from 29. August 2011
EAC extraction logfile from 5. August 2013, 19:12
Chicago / Chicago III
Used drive : PLEXTOR BD-R PX-B950SA Adapter: 6 ID: 0
Read mode : SecureUtilize accurate stream : YesDefeat audio cache : YesMake use of C2 pointers : No
Read offset correction : 6Overread into Lead-In and Lead-Out : NoFill up missing offset samples with silence : YesDelete leading and trailing silent blocks : NoNull samples used in CRC calculations : YesUsed interface : Native Win32 interface for Win NT & 2000
Used output format : Internal WAV RoutinesSample format : 44.100 Hz; 16 Bit; Stereo
TOC of the extracted CD
Track | Start | Length | Start sector | End sector --------------------------------------------------------- 1 | 0:00.00 | 9:18.00 | 0 | 41849 2 | 9:18.00 | 2:38.10 | 41850 | 53709 3 | 11:56.10 | 3:13.47 | 53710 | 68231 4 | 15:09.57 | 4:47.18 | 68232 | 89774 5 | 19:57.00 | 2:44.40 | 89775 | 102114 6 | 22:41.40 | 1:30.05 | 102115 | 108869 7 | 24:11.45 | 2:15.70 | 108870 | 119064 8 | 26:27.40 | 5:46.67 | 119065 | 145081 9 | 32:14.32 | 2:48.58 | 145082 | 157739 10 | 35:03.15 | 7:28.22 | 157740 | 191361 11 | 42:31.37 | 4:31.28 | 191362 | 211714 12 | 47:02.65 | 3:36.20 | 211715 | 227934 13 | 50:39.10 | 1:52.00 | 227935 | 236334 14 | 52:31.10 | 0:45.62 | 236335 | 239771 15 | 53:16.72 | 0:53.25 | 239772 | 243771 16 | 54:10.22 | 0:49.25 | 243772 | 247471 17 | 54:59.47 | 1:11.53 | 247472 | 252849 18 | 56:11.25 | 1:03.52 | 252850 | 257626 19 | 57:15.02 | 1:05.18 | 257627 | 262519 20 | 58:20.20 | 2:34.25 | 262520 | 274094 21 | 60:54.45 | 2:34.67 | 274095 | 285711 22 | 63:29.37 | 6:26.20 | 285712 | 314681 23 | 69:55.57 | 1:34.10 | 314682 | 321741
Range status and errors
Selected range
Filename C:\Users\Meijin\Desktop\Lossless Galaxy ALLexxess\Chicago\2012 Studio Albums 1969-1978 (10CD Box Set Rhino Records)\1971 Chicago III\Chicago - Chicago III.wav
Peak level 98.9 % Extraction speed 8.5 X Range quality 100.0 % Test CRC 10FBEBCF Copy CRC 10FBEBCF Copy OK
No errors occurred
AccurateRip summary
Track 1 accurately ripped (confidence 17) [2BB38D14] (AR v2)Track 2 accurately ripped (confidence 17) [59D22428] (AR v2)Track 3 accurately ripped (confidence 17) [F9FE3BAC] (AR v2)Track 4 accurately ripped (confidence 17) [6A0FED3C] (AR v2)Track 5 accurately ripped (confidence 17) [70DD4A6D] (AR v2)Track 6 accurately ripped (confidence 17) [A9A14B91] (AR v2)Track 7 accurately ripped (confidence 17) [27CE096E] (AR v2)Track 8 accurately ripped (confidence 17) [62F5E3FD] (AR v2)Track 9 accurately ripped (confidence 17) [0CE1D932] (AR v2)Track 10 accurately ripped (confidence 17) [0BAA898C] (AR v2)Track 11 accurately ripped (confidence 17) [3AC434A4] (AR v2)Track 12 accurately ripped (confidence 17) [349E8322] (AR v2)Track 13 accurately ripped (confidence 17) [E5972212] (AR v2)Track 14 accurately ripped (confidence 17) [E50C5D61] (AR v2)Track 15 accurately ripped (confidence 17) [7DC5A373] (AR v2)Track 16 accurately ripped (confidence 17) [A3076BD7] (AR v2)Track 17 accurately ripped (confidence 17) [DDDF1F0B] (AR v2)Track 18 accurately ripped (confidence 17) [E772CA4F] (AR v2)Track 19 accurately ripped (confidence 17) [19AA5347] (AR v2)Track 20 accurately ripped (confidence 17) [D72C69FB] (AR v2)Track 21 accurately ripped (confidence 17) [C96CE371] (AR v2)Track 22 accurately ripped (confidence 17) [E498677F] (AR v2)Track 23 accurately ripped (confidence 17) [EBEB6963] (AR v2)
All tracks accurately ripped
End of status report
==== Log checksum 77F23EDE641AE533FBA13135DD88738973C81BC78DB715CDD50CA3BB61E67122 ====

Содержание индексной карты (.CUE)

REM GENRE "Rock / Jazz Rock / Pop Rock"REM DATE 1971REM DISCID 4510C117REM COMMENT "ExactAudioCopy v1.0b3"PERFORMER "Chicago"TITLE "Chicago III"FILE "Chicago - Chicago III.flac" WAVE TRACK 01 AUDIO TITLE "Sing A Mean Tune Kid" PERFORMER "Chicago" INDEX 01 00:00:00 TRACK 02 AUDIO TITLE "Loneliness Is Just A Word" PERFORMER "Chicago" INDEX 00 09:12:67 INDEX 01 09:18:00 TRACK 03 AUDIO TITLE "What Else Can I Say" PERFORMER "Chicago" INDEX 00 11:53:40 INDEX 01 11:56:10 TRACK 04 AUDIO TITLE "I Don't Want Your Money" PERFORMER "Chicago" INDEX 00 15:07:55 INDEX 01 15:09:57 TRACK 05 AUDIO TITLE "Travel Suite: Flight 602" PERFORMER "Chicago" INDEX 00 19:56:65 INDEX 01 19:57:00 TRACK 06 AUDIO TITLE "Travel Suite: Motorboat To Mars" PERFORMER "Chicago" INDEX 01 22:41:40 TRACK 07 AUDIO TITLE "Travel Suite: Free" PERFORMER "Chicago" INDEX 01 24:11:45 TRACK 08 AUDIO TITLE "Travel Suite: Free Country" PERFORMER "Chicago" INDEX 01 26:27:40 TRACK 09 AUDIO TITLE "Travel Suite: At The Sunrise" PERFORMER "Chicago" INDEX 01 32:14:32 TRACK 10 AUDIO TITLE "Travel Suite: Happy 'Cause I'm Going Home" PERFORMER "Chicago" INDEX 00 35:00:62 INDEX 01 35:03:15 TRACK 11 AUDIO TITLE "Mother" PERFORMER "Chicago" INDEX 00 42:28:45 INDEX 01 42:31:37 TRACK 12 AUDIO TITLE "Lowdown" PERFORMER "Chicago" INDEX 00 47:01:07 INDEX 01 47:02:65 TRACK 13 AUDIO TITLE "An Hour In The Shower: A Hard Risin' Morning Without Breakfast" PERFORMER "Chicago" INDEX 00 50:37:32 INDEX 01 50:39:10 TRACK 14 AUDIO TITLE "An Hour In The Shower: Off To Work" PERFORMER "Chicago" INDEX 01 52:31:10 TRACK 15 AUDIO TITLE "An Hour In The Shower: Fallin' Out" PERFORMER "Chicago" INDEX 01 53:16:72 TRACK 16 AUDIO TITLE "An Hour In The Shower: Dreamin' Home" PERFORMER "Chicago" INDEX 01 54:10:22 TRACK 17 AUDIO TITLE "An Hour In The Shower: Morning Blues Again" PERFORMER "Chicago" INDEX 01 54:59:47 TRACK 18 AUDIO TITLE "Elegy: When All The Laughter Dies In Sorrow" PERFORMER "Chicago" INDEX 00 56:09:07 INDEX 01 56:11:25 TRACK 19 AUDIO TITLE "Elegy: Canon" PERFORMER "Chicago" INDEX 00 57:14:02 INDEX 01 57:15:02 TRACK 20 AUDIO TITLE "Elegy: Once Upon A Time..." PERFORMER "Chicago" INDEX 01 58:20:20 TRACK 21 AUDIO TITLE "Elegy: Progress?" PERFORMER "Chicago" INDEX 01 60:54:45 TRACK 22 AUDIO TITLE "Elegy: The Approaching Storm" PERFORMER "Chicago" INDEX 01 63:29:37 TRACK 23 AUDIO TITLE "Elegy: Man Vs. Man: The End" PERFORMER "Chicago" INDEX 01 69:55:57

Лог проверки качества

-----------------------
DON'T MODIFY THIS FILE
-----------------------
PERFORMER: auCDtect Task Manager, ver. 1.5.1RC3 build 1.5.1.4Copyright (c) 2008-2010 y-soft. All rights reservedhttp://y-soft.org
ANALYZER: auCDtect: CD records authenticity detector, version 0.8.2Copyright (c) 2004 Oleg Berngardt. All rights reserved.Copyright (c) 2004 Alexander Djourik. All rights reserved.
FILE: Chicago - Chicago III.wav Size: 756737228 Hash: 193BC81A6623CBB782496324503C2536 Accuracy: -m8 Conclusion: CDDA 100% Signature: AE53415E8B24BE2BFB9505244DAF5298B394314EFILE: Chicago - Chicago III.flac Size: 476152843 Hash: 193BC81A6623CBB782496324503C2536 Accuracy: -m8 Conclusion: CDDA 100% Signature: AB4D4F6E5D33FCC50D89722EA7A662F0AB63C748

Back, Disc, Matrix, Spectrogram

1972 - Chicago V 01:04:03

01. A Hit By Varese 04:56
02. All Is Well 03:51
03. Now That You've Gone 05:05
04. Dialogue (Part One) 02:56
05. Dialogue (Part Two) 04:13
06. While The City Sleeps 03:55
07. Saturday In The Park 04:00
08. State Of The Union 06:15
09. Goodbye 06:04
10. Alma Mater 04:00
Bonus Selections:
11. A Song For Richard And His Friends (Studio Version, Without Vocals) 08:13
12. Mississippi Delta City Blues (First Recorded Version, With Scratch Vocals) 05:27
13. Dialogue (Part I & II) (Single Version) 05:00

Лог создания рипа

Exact Audio Copy V1.0 beta 3 from 29. August 2011
EAC extraction logfile from 5. August 2013, 18:35
Chicago / Chicago V
Used drive : PLEXTOR BD-R PX-B950SA Adapter: 6 ID: 0
Read mode : SecureUtilize accurate stream : YesDefeat audio cache : YesMake use of C2 pointers : No
Read offset correction : 6Overread into Lead-In and Lead-Out : NoFill up missing offset samples with silence : YesDelete leading and trailing silent blocks : NoNull samples used in CRC calculations : YesUsed interface : Native Win32 interface for Win NT & 2000
Used output format : Internal WAV RoutinesSample format : 44.100 Hz; 16 Bit; Stereo
TOC of the extracted CD
Track | Start | Length | Start sector | End sector --------------------------------------------------------- 1 | 0:00.00 | 4:56.17 | 0 | 22216 2 | 4:56.17 | 3:51.68 | 22217 | 39609 3 | 8:48.10 | 5:05.35 | 39610 | 62519 4 | 13:53.45 | 2:56.60 | 62520 | 75779 5 | 16:50.30 | 4:13.35 | 75780 | 94789 6 | 21:03.65 | 3:55.60 | 94790 | 112474 7 | 24:59.50 | 4:00.42 | 112475 | 130516 8 | 29:00.17 | 6:15.13 | 130517 | 158654 9 | 35:15.30 | 6:04.67 | 158655 | 186021 10 | 41:20.22 | 4:00.40 | 186022 | 204061 11 | 45:20.62 | 8:13.70 | 204062 | 241106 12 | 53:34.57 | 5:27.60 | 241107 | 265691 13 | 59:02.42 | 5:00.30 | 265692 | 288221
Range status and errors
Selected range
Filename C:\Users\Meijin\Desktop\Lossless Galaxy ALLexxess\Chicago\2012 Studio Albums 1969-1978 (10CD Box Set Rhino Records)\1972 Chicago V\Chicago - Chicago V.wav
Peak level 97.7 % Extraction speed 8.3 X Range quality 100.0 % Test CRC F2C8E2CA Copy CRC F2C8E2CA Copy OK
No errors occurred
AccurateRip summary
Track 1 accurately ripped (confidence 17) [7CB4BAF5] (AR v2)Track 2 accurately ripped (confidence 17) [B389F934] (AR v2)Track 3 accurately ripped (confidence 17) [3ACE1639] (AR v2)Track 4 accurately ripped (confidence 17) [FBE64BD5] (AR v2)Track 5 accurately ripped (confidence 17) [7A6BA808] (AR v2)Track 6 accurately ripped (confidence 17) [F17B7F13] (AR v2)Track 7 accurately ripped (confidence 17) [39B3C718] (AR v2)Track 8 accurately ripped (confidence 17) [616AFAE7] (AR v2)Track 9 accurately ripped (confidence 17) [A117D003] (AR v2)Track 10 accurately ripped (confidence 17) [81A22F67] (AR v2)Track 11 accurately ripped (confidence 16) [BB20CD27] (AR v2)Track 12 accurately ripped (confidence 16) [884B1BBC] (AR v2)Track 13 accurately ripped (confidence 16) [44AD534C] (AR v2)
All tracks accurately ripped
End of status report
==== Log checksum 97C91BE5DBD96CBFF9F66B162D5372FF75CC883F143DB533724670C65B965174 ====

Содержание индексной карты (.CUE)

REM GENRE "Rock / Jazz Rock / Pop Rock"REM DATE 1972REM DISCID 980F020DREM COMMENT "ExactAudioCopy v1.0b3"PERFORMER "Chicago"TITLE "Chicago V"FILE "Chicago - Chicago V.flac" WAVE TRACK 01 AUDIO TITLE "A Hit By Varese" PERFORMER "Chicago" INDEX 01 00:00:00 TRACK 02 AUDIO TITLE "All Is Well" PERFORMER "Chicago" INDEX 01 04:56:17 TRACK 03 AUDIO TITLE "Now That You've Gone" PERFORMER "Chicago" INDEX 01 08:48:10 TRACK 04 AUDIO TITLE "Dialogue (Part One)" PERFORMER "Chicago" INDEX 00 13:49:00 INDEX 01 13:53:45 TRACK 05 AUDIO TITLE "Dialogue (Part Two)" PERFORMER "Chicago" INDEX 01 16:50:30 TRACK 06 AUDIO TITLE "While The City Sleeps" PERFORMER "Chicago" INDEX 01 21:03:65 TRACK 07 AUDIO TITLE "Saturday In The Park" PERFORMER "Chicago" INDEX 00 24:57:10 INDEX 01 24:59:50 TRACK 08 AUDIO TITLE "State Of The Union" PERFORMER "Chicago" INDEX 00 28:56:10 INDEX 01 29:00:17 TRACK 09 AUDIO TITLE "Goodbye" PERFORMER "Chicago" INDEX 00 35:11:70 INDEX 01 35:15:30 TRACK 10 AUDIO TITLE "Alma Mater" PERFORMER "Chicago" INDEX 00 41:17:00 INDEX 01 41:20:22 TRACK 11 AUDIO TITLE "A Song For Richard And His Friends (Studio Version, Without Vocals) / Bonus" PERFORMER "Chicago" INDEX 00 45:16:31 INDEX 01 45:20:62 TRACK 12 AUDIO TITLE "Mississippi Delta City Blues (First Recorded Version, With Scratch Vocals) / ..." PERFORMER "Chicago" INDEX 00 53:32:22 INDEX 01 53:34:57 TRACK 13 AUDIO TITLE "Dialogue (Part I & II) (Single Version) / Bonus" PERFORMER "Chicago" INDEX 00 59:01:00 INDEX 01 59:02:42

Лог проверки качества

-----------------------
DON'T MODIFY THIS FILE
-----------------------
PERFORMER: auCDtect Task Manager, ver. 1.5.1RC3 build 1.5.1.4Copyright (c) 2008-2010 y-soft. All rights reservedhttp://y-soft.org
ANALYZER: auCDtect: CD records authenticity detector, version 0.8.2Copyright (c) 2004 Oleg Berngardt. All rights reserved.Copyright (c) 2004 Alexander Djourik. All rights reserved.
FILE: Chicago - Chicago V.wav Size: 677898188 Hash: BB303FBA7089DD33D35D9AABF9B13300 Accuracy: -m8 Conclusion: CDDA 100% Signature: C1B573B86CC69B7EE718C9951FBEE9EBBF827162FILE: Chicago - Chicago V.flac Size: 432706893 Hash: BB303FBA7089DD33D35D9AABF9B13300 Accuracy: -m8 Conclusion: CDDA 100% Signature: 76C4CB8C9C681DACFE437E7D1FEE6C9A41930C2B

Back, Disc, Matrix, Spectrogram

1973 - Chicago VI 00:49:38

01. Critics' Choice 02:49
02. Just You 'N' Me 03:45
03. Darlin' Dear 03:00
04. Jenny 03:33
05. What's This World Comin' To 05:00
06. Something In This City Changes People 03:42
07. Hollywood 03:54
08. In Terms Of Two 03:31
09. Rediscovery 04:50
10. Feelin' Stronger Every Day 04:21
Bonus Selections:
11. Beyond All Our Sorrows (Terry Kath Demo) 07:02
12. Tired Of Being Alone (with Al Green) 04:07

Лог создания рипа

Exact Audio Copy V1.0 beta 3 from 29. August 2011
EAC extraction logfile from 5. August 2013, 16:12
Chicago / Chicago VI
Used drive : PLEXTOR BD-R PX-B950SA Adapter: 6 ID: 0
Read mode : SecureUtilize accurate stream : YesDefeat audio cache : YesMake use of C2 pointers : No
Read offset correction : 6Overread into Lead-In and Lead-Out : NoFill up missing offset samples with silence : YesDelete leading and trailing silent blocks : NoNull samples used in CRC calculations : YesUsed interface : Native Win32 interface for Win NT & 2000
Used output format : Internal WAV RoutinesSample format : 44.100 Hz; 16 Bit; Stereo
TOC of the extracted CD
Track | Start | Length | Start sector | End sector --------------------------------------------------------- 1 | 0:00.00 | 2:49.05 | 0 | 12679 2 | 2:49.05 | 3:45.30 | 12680 | 29584 3 | 6:34.35 | 3:00.55 | 29585 | 43139 4 | 9:35.15 | 3:33.00 | 43140 | 59114 5 | 13:08.15 | 5:00.42 | 59115 | 81656 6 | 18:08.57 | 3:42.08 | 81657 | 98314 7 | 21:50.65 | 3:54.50 | 98315 | 115914 8 | 25:45.40 | 3:31.12 | 115915 | 131751 9 | 29:16.52 | 4:50.13 | 131752 | 153514 10 | 34:06.65 | 4:21.00 | 153515 | 173089 11 | 38:27.65 | 7:02.17 | 173090 | 204756 12 | 45:30.07 | 4:07.20 | 204757 | 223301
Range status and errors
Selected range
Filename C:\Users\Meijin\Desktop\Lossless Galaxy ALLexxess\Chicago\2012 Studio Albums 1969-1978 (10CD Box Set Rhino Records)\1973 Chicago VI\Chicago - Chicago VI.wav
Peak level 98.9 % Extraction speed 7.2 X Range quality 99.9 % Test CRC EAAB7CA2 Copy CRC EAAB7CA2 Copy OK
No errors occurred
AccurateRip summary
Track 1 accurately ripped (confidence 18) [2860AFF4] (AR v2)Track 2 accurately ripped (confidence 18) [7CE23727] (AR v2)Track 3 accurately ripped (confidence 18) [E9CEEA2D] (AR v2)Track 4 accurately ripped (confidence 18) [7AC687C6] (AR v2)Track 5 accurately ripped (confidence 18) [21CC274E] (AR v2)Track 6 accurately ripped (confidence 18) [AA16FF99] (AR v2)Track 7 accurately ripped (confidence 18) [A4FC4301] (AR v2)Track 8 accurately ripped (confidence 18) [19A36506] (AR v2)Track 9 accurately ripped (confidence 18) [5F9D5E02] (AR v2)Track 10 accurately ripped (confidence 18) [E2912876] (AR v2)Track 11 accurately ripped (confidence 17) [56029DE2] (AR v2)Track 12 accurately ripped (confidence 17) [6864D670] (AR v2)
All tracks accurately ripped
End of status report
==== Log checksum 2012AF9C06F2AD2E0AB49634C8AC2E5A52F17F817C342E8D85F77589A8F4A588 ====

Содержание индексной карты (.CUE)

REM GENRE "Rock / Jazz Rock / Pop Rock"REM DATE 1973REM DISCID A10BA10CREM COMMENT "ExactAudioCopy v1.0b3"PERFORMER "Chicago"TITLE "Chicago VI"FILE "Chicago - Chicago VI.flac" WAVE TRACK 01 AUDIO TITLE "Critics' Choice" PERFORMER "Chicago" INDEX 01 00:00:00 TRACK 02 AUDIO TITLE "Just You 'N' Me" PERFORMER "Chicago" INDEX 01 02:49:05 TRACK 03 AUDIO TITLE "Darlin' Dear" PERFORMER "Chicago" INDEX 00 06:30:37 INDEX 01 06:34:35 TRACK 04 AUDIO TITLE "Jenny" PERFORMER "Chicago" INDEX 00 09:30:55 INDEX 01 09:35:15 TRACK 05 AUDIO TITLE "What's This World Comin' To" PERFORMER "Chicago" INDEX 00 13:05:60 INDEX 01 13:08:15 TRACK 06 AUDIO TITLE "Something In This City Changes People" PERFORMER "Chicago" INDEX 00 18:06:15 INDEX 01 18:08:57 TRACK 07 AUDIO TITLE "Hollywood" PERFORMER "Chicago" INDEX 01 21:50:65 TRACK 08 AUDIO TITLE "In Terms Of Two" PERFORMER "Chicago" INDEX 00 25:42:42 INDEX 01 25:45:40 TRACK 09 AUDIO TITLE "Rediscovery" PERFORMER "Chicago" INDEX 00 29:14:67 INDEX 01 29:16:52 TRACK 10 AUDIO TITLE "Feelin' Stronger Every Day" PERFORMER "Chicago" INDEX 00 34:03:30 INDEX 01 34:06:65 TRACK 11 AUDIO TITLE "Beyond All Our Sorrows (Terry Kath Demo) / Bonus" PERFORMER "Chicago" INDEX 00 38:21:60 INDEX 01 38:27:65 TRACK 12 AUDIO TITLE "Tired Of Being Alone (With Al Green) / Bonus" PERFORMER "Chicago" INDEX 00 45:28:22 INDEX 01 45:30:07

Лог проверки качества

-----------------------
DON'T MODIFY THIS FILE
-----------------------
PERFORMER: auCDtect Task Manager, ver. 1.5.1RC3 build 1.5.1.4Copyright (c) 2008-2010 y-soft. All rights reservedhttp://y-soft.org
ANALYZER: auCDtect: CD records authenticity detector, version 0.8.2Copyright (c) 2004 Oleg Berngardt. All rights reserved.Copyright (c) 2004 Alexander Djourik. All rights reserved.
FILE: Chicago - Chicago VI.wav Size: 525206348 Hash: 4EFC77B034A973B78BB28733C1A8FF89 Accuracy: -m8 Conclusion: CDDA 100% Signature: D251026A97DC522FC520D3AE1CFF140149E97BE6FILE: Chicago - Chicago VI.flac Size: 331544746 Hash: 4EFC77B034A973B78BB28733C1A8FF89 Accuracy: -m8 Conclusion: CDDA 100% Signature: B6E16583C9B58CDEC46CC4C2F3CAB4529FEBBB90

Back, Disc, Matrix, Spectrogram

1974 - Chicago VII 01:18:03

01. Prelude To Aire 02:47
02. Air 06:28
03. Devil's Sweet 10:09
04. Italian From New York 04:14
05. Hanky Panky 01:53
06. Life Saver 05:18
07. Happy Man 03:16
08. (I've Been) Searchin' So Long 04:28
09. Mongonucleosis 03:27
10. Song For The Evergreens 05:21
11. Byblos 06:20
12. Wishing You Were Here 04:37
13. Call On Me 04:03
14. Women Don't Want To Love Me 04:36
15. Skinny Boy 05:17
Bonus Selection:
16. Byblos (Rehearsal) 05:42

Лог создания рипа

Exact Audio Copy V1.0 beta 3 from 29. August 2011
EAC extraction logfile from 4. August 2013, 16:48
Chicago / Chicago VII
Used drive : PLEXTOR BD-R PX-B950SA Adapter: 6 ID: 0
Read mode : SecureUtilize accurate stream : YesDefeat audio cache : YesMake use of C2 pointers : No
Read offset correction : 6Overread into Lead-In and Lead-Out : NoFill up missing offset samples with silence : YesDelete leading and trailing silent blocks : NoNull samples used in CRC calculations : YesUsed interface : Native Win32 interface for Win NT & 2000
Used output format : Internal WAV RoutinesSample format : 44.100 Hz; 16 Bit; Stereo
TOC of the extracted CD
Track | Start | Length | Start sector | End sector --------------------------------------------------------- 1 | 0:00.00 | 2:47.08 | 0 | 12532 2 | 2:47.08 | 6:28.52 | 12533 | 41684 3 | 9:15.60 | 10:09.25 | 41685 | 87384 4 | 19:25.10 | 4:14.02 | 87385 | 106436 5 | 23:39.12 | 1:53.20 | 106437 | 114931 6 | 25:32.32 | 5:18.16 | 114932 | 138797 7 | 30:50.48 | 3:16.62 | 138798 | 153559 8 | 34:07.35 | 4:28.38 | 153560 | 173697 9 | 38:35.73 | 3:27.40 | 173698 | 189262 10 | 42:03.38 | 5:21.25 | 189263 | 213362 11 | 47:24.63 | 6:20.27 | 213363 | 241889 12 | 53:45.15 | 4:37.65 | 241890 | 262729 13 | 58:23.05 | 4:03.10 | 262730 | 280964 14 | 62:26.15 | 4:36.63 | 280965 | 301727 15 | 67:03.03 | 5:17.05 | 301728 | 325507 16 | 72:20.08 | 5:42.40 | 325508 | 351197
Range status and errors
Selected range
Filename C:\Users\Meijin\Desktop\Lossless Galaxy ALLexxess\Chicago\2012 Studio Albums 1969-1978 (10CD Box Set Rhino Records)\1974 Chicago VII\Chicago - Chicago VII.wav
Peak level 97.7 % Extraction speed 8.7 X Range quality 100.0 % Test CRC D27A7C03 Copy CRC D27A7C03 Copy OK
No errors occurred
AccurateRip summary
Track 1 accurately ripped (confidence 16) [B2836815] (AR v2)Track 2 accurately ripped (confidence 16) [2614B58E] (AR v2)Track 3 accurately ripped (confidence 16) [F25AA4D8] (AR v2)Track 4 accurately ripped (confidence 16) [147EB23F] (AR v2)Track 5 accurately ripped (confidence 16) [0A8608D1] (AR v2)Track 6 accurately ripped (confidence 16) [EBCB1671] (AR v2)Track 7 accurately ripped (confidence 16) [A698AA2E] (AR v2)Track 8 accurately ripped (confidence 16) [5DB3333B] (AR v2)Track 9 accurately ripped (confidence 16) [43BEED4D] (AR v2)Track 10 accurately ripped (confidence 16) [9D7A8C39] (AR v2)Track 11 accurately ripped (confidence 16) [6CBE5610] (AR v2)Track 12 accurately ripped (confidence 16) [4033B5B8] (AR v2)Track 13 accurately ripped (confidence 16) [0C348A7A] (AR v2)Track 14 accurately ripped (confidence 16) [A23511EE] (AR v2)Track 15 accurately ripped (confidence 16) [3E7BDF24] (AR v2)Track 16 accurately ripped (confidence 16) [619BDF63] (AR v2)
All tracks accurately ripped
End of status report
==== Log checksum 35A3182E41DA470D0198E2FE18352C1C48E05CBCEFAFB16722068AF5F5E11EED ====

Содержание индексной карты (.CUE)

REM GENRE "Rock / Jazz Rock / Pop Rock"REM DATE 1974REM DISCID DE124A10REM COMMENT "ExactAudioCopy v1.0b3"PERFORMER "Chicago"TITLE "Chicago VII"FILE "Chicago - Chicago VII.flac" WAVE TRACK 01 AUDIO TITLE "Prelude To Aire" PERFORMER "Chicago" INDEX 01 00:00:00 TRACK 02 AUDIO TITLE "Aire" PERFORMER "Chicago" INDEX 01 02:47:08 TRACK 03 AUDIO TITLE "Devil's Sweet" PERFORMER "Chicago" INDEX 00 09:13:72 INDEX 01 09:15:60 TRACK 04 AUDIO TITLE "Italian From New York" PERFORMER "Chicago" INDEX 00 19:22:65 INDEX 01 19:25:10 TRACK 05 AUDIO TITLE "Hanky Panky" PERFORMER "Chicago" INDEX 01 23:39:12 TRACK 06 AUDIO TITLE "Life Saver" PERFORMER "Chicago" INDEX 01 25:32:32 TRACK 07 AUDIO TITLE "Happy Man" PERFORMER "Chicago" INDEX 01 30:50:48 TRACK 08 AUDIO TITLE "(I've Been) Searchin' So Long" PERFORMER "Chicago" INDEX 00 34:06:30 INDEX 01 34:07:35 TRACK 09 AUDIO TITLE "Mongonucleosis" PERFORMER "Chicago" INDEX 01 38:35:73 TRACK 10 AUDIO TITLE "Song Of The Evergreens" PERFORMER "Chicago" INDEX 00 42:02:30 INDEX 01 42:03:38 TRACK 11 AUDIO TITLE "Byblos" PERFORMER "Chicago" INDEX 00 47:23:28 INDEX 01 47:24:63 TRACK 12 AUDIO TITLE "Wishing You Were Here" PERFORMER "Chicago" INDEX 00 53:43:03 INDEX 01 53:45:15 TRACK 13 AUDIO TITLE "Call On Me" PERFORMER "Chicago" INDEX 00 58:21:60 INDEX 01 58:23:05 TRACK 14 AUDIO TITLE "Women Don't Want To Love Me" PERFORMER "Chicago" INDEX 00 62:24:58 INDEX 01 62:26:15 TRACK 15 AUDIO TITLE "Skinny Boy" PERFORMER "Chicago" INDEX 00 67:01:35 INDEX 01 67:03:03 TRACK 16 AUDIO TITLE "Byblos (Rehearsal) / Bonus" PERFORMER "Chicago" INDEX 00 72:15:28 INDEX 01 72:20:08

Лог проверки качества

-----------------------
DON'T MODIFY THIS FILE
-----------------------
PERFORMER: auCDtect Task Manager, ver. 1.5.1RC3 build 1.5.1.4Copyright (c) 2008-2010 y-soft. All rights reservedhttp://y-soft.org
ANALYZER: auCDtect: CD records authenticity detector, version 0.8.2Copyright (c) 2004 Oleg Berngardt. All rights reserved.Copyright (c) 2004 Alexander Djourik. All rights reserved.
FILE: Chicago - Chicago VII.wav Size: 826017740 Hash: FDD64CD2BE55A28703A76A3B3E60119F Accuracy: -m8 Conclusion: CDDA 100% Signature: A39987C3826E1E10942F9FBB2830A5BAB93A31F3FILE: Chicago - Chicago VII.flac Size: 520737873 Hash: FDD64CD2BE55A28703A76A3B3E60119F Accuracy: -m8 Conclusion: CDDA 100% Signature: A3B53EDBB1FA470A36D801354E7BFD53520879BA

Back, Disc, Matrix, Spectrogram

1975 - Chicago VIII 00:50:58

01. Anyway You Want 03:39
02. Brand New Love Affair - Part I & II 04:29
03. Never Been In Love Before 04:10
04. Hideaway 04:45
05. Till We Meet Again 02:04
06. Harry Truman 03:02
07. Oh, Thank You Great Spirit 07:20
08. Long Time No See 02:48
09. Ain't It Blue? 03:27
10. Old Days 03:34
Bonus Selections:
11. Sixth Sense (Rehearsal) 05:06
12. Bright Eyes (Rehearsal) 03:40
13. Satin Doll (Live, 1974) 02:47

Лог создания рипа

Exact Audio Copy V1.0 beta 3 from 29. August 2011
EAC extraction logfile from 4. August 2013, 16:09
Chicago / Chicago VIII
Used drive : PLEXTOR BD-R PX-B950SA Adapter: 6 ID: 0
Read mode : SecureUtilize accurate stream : YesDefeat audio cache : YesMake use of C2 pointers : No
Read offset correction : 6Overread into Lead-In and Lead-Out : NoFill up missing offset samples with silence : YesDelete leading and trailing silent blocks : NoNull samples used in CRC calculations : YesUsed interface : Native Win32 interface for Win NT & 2000
Used output format : Internal WAV RoutinesSample format : 44.100 Hz; 16 Bit; Stereo
TOC of the extracted CD
Track | Start | Length | Start sector | End sector --------------------------------------------------------- 1 | 0:00.00 | 3:39.07 | 0 | 16431 2 | 3:39.07 | 4:29.20 | 16432 | 36626 3 | 8:08.27 | 4:10.00 | 36627 | 55376 4 | 12:18.27 | 4:45.10 | 55377 | 76761 5 | 17:03.37 | 2:04.40 | 76762 | 86101 6 | 19:08.02 | 3:02.50 | 86102 | 99801 7 | 22:10.52 | 7:20.43 | 99802 | 132844 8 | 29:31.20 | 2:48.42 | 132845 | 145486 9 | 32:19.62 | 3:27.65 | 145487 | 161076 10 | 35:47.52 | 3:34.68 | 161077 | 177194 11 | 39:22.45 | 5:06.70 | 177195 | 200214 12 | 44:29.40 | 3:40.70 | 200215 | 216784 13 | 48:10.35 | 2:47.47 | 216785 | 229356
Range status and errors
Selected range
Filename C:\Users\Meijin\Desktop\Lossless Galaxy ALLexxess\Chicago\2012 Studio Albums 1969-1978 (10CD Box Set Rhino Records)\1975 Chicago VIII\Chicago - Chicago VIII.wav
Peak level 100.0 % Extraction speed 7.3 X Range quality 100.0 % Test CRC C9AA6F84 Copy CRC C9AA6F84 Copy OK
No errors occurred
AccurateRip summary
Track 1 accurately ripped (confidence 16) [110BE729] (AR v2)Track 2 accurately ripped (confidence 16) [033D7ADE] (AR v2)Track 3 accurately ripped (confidence 16) [0CE0B276] (AR v2)Track 4 accurately ripped (confidence 16) [289C40E0] (AR v2)Track 5 accurately ripped (confidence 16) [0C0F82CD] (AR v2)Track 6 accurately ripped (confidence 16) [9A9E021F] (AR v2)Track 7 accurately ripped (confidence 16) [94270F4B] (AR v2)Track 8 accurately ripped (confidence 16) [DCE86EF8] (AR v2)Track 9 accurately ripped (confidence 16) [76631E32] (AR v2)Track 10 accurately ripped (confidence 16) [E1F7AD4A] (AR v2)Track 11 accurately ripped (confidence 16) [8EE8A552] (AR v2)Track 12 accurately ripped (confidence 16) [FC718BFD] (AR v2)Track 13 accurately ripped (confidence 16) [C6DFA180] (AR v2)
All tracks accurately ripped
End of status report
==== Log checksum 9EF344E5F7FFF88C5809E0953570FB601168BE70E8B6D8E0E65886D26ED9C6FB ====

Содержание индексной карты (.CUE)

REM GENRE "Rock / Jazz Rock / Pop Rock"REM DATE 1975REM DISCID 9C0BF20DREM COMMENT "ExactAudioCopy v1.0b3"PERFORMER "Chicago"TITLE "Chicago VIII"FILE "Chicago - Chicago VIII.flac" WAVE TRACK 01 AUDIO TITLE "Anyway You Want" PERFORMER "Chicago" INDEX 01 00:00:00 TRACK 02 AUDIO TITLE "Brand New Love Affair - Part I & II" PERFORMER "Chicago" INDEX 00 03:36:70 INDEX 01 03:39:07 TRACK 03 AUDIO TITLE "Never Been In Love Before" PERFORMER "Chicago" INDEX 00 08:07:22 INDEX 01 08:08:27 TRACK 04 AUDIO TITLE "Hideaway" PERFORMER "Chicago" INDEX 01 12:18:27 TRACK 05 AUDIO TITLE "Till We Meet Again" PERFORMER "Chicago" INDEX 00 17:02:07 INDEX 01 17:03:37 TRACK 06 AUDIO TITLE "Harry Truman" PERFORMER "Chicago" INDEX 00 19:06:32 INDEX 01 19:08:02 TRACK 07 AUDIO TITLE "Oh, Thank You Great Spirit" PERFORMER "Chicago" INDEX 00 22:08:42 INDEX 01 22:10:52 TRACK 08 AUDIO TITLE "Long Time No See" PERFORMER "Chicago" INDEX 00 29:29:35 INDEX 01 29:31:20 TRACK 09 AUDIO TITLE "Ain't It Blue?" PERFORMER "Chicago" INDEX 00 32:17:25 INDEX 01 32:19:62 TRACK 10 AUDIO TITLE "Old Days" PERFORMER "Chicago" INDEX 00 35:45:62 INDEX 01 35:47:52 TRACK 11 AUDIO TITLE "Sixth Sense (Rehearsal) / Bonus" PERFORMER "Chicago" INDEX 00 39:18:20 INDEX 01 39:22:45 TRACK 12 AUDIO TITLE "Bright Eyes (Rehearsal) / Bonus" PERFORMER "Chicago" INDEX 00 44:26:50 INDEX 01 44:29:40 TRACK 13 AUDIO TITLE "Satin Doll (Live, 1974) / Bonus" PERFORMER "Chicago" INDEX 00 48:07:25 INDEX 01 48:10:35

Лог проверки качества

-----------------------
DON'T MODIFY THIS FILE
-----------------------
PERFORMER: auCDtect Task Manager, ver. 1.5.1RC3 build 1.5.1.4Copyright (c) 2008-2010 y-soft. All rights reservedhttp://y-soft.org
ANALYZER: auCDtect: CD records authenticity detector, version 0.8.2Copyright (c) 2004 Oleg Berngardt. All rights reserved.Copyright (c) 2004 Alexander Djourik. All rights reserved.
FILE: Chicago - Chicago VIII.wav Size: 539447708 Hash: 890FFD1F2601742762A6F80577FCD4C4 Accuracy: -m8 Conclusion: CDDA 100% Signature: F8AA5A176A79DCEF84EEA5FA867C97CDA6D0DCF1FILE: Chicago - Chicago VIII.flac Size: 341256999 Hash: 890FFD1F2601742762A6F80577FCD4C4 Accuracy: -m8 Conclusion: CDDA 100% Signature: DA06AEB9DD3268352D4ED1E9551DF5CA08F11E86

Back, Disc, Matrix, Spectrogram

1976 - Chicago X 00:46:54

01. Once Or Twice 03:02
02. You Are On My Mind 03:25
03. Skin Tight 03:21
04. If You Leave Me Now 03:59
05. Together Again 03:55
06. Another Rainy Day In New York City 03:05
07. Mama Mama 03:33
08. Scrapbook 03:32
09. Gently I'll Wake You 03:35
10. You Get It Up 03:36
11. Hope For Love 03:08
Bonus Selections:
12. I'd Rather Be Rich (Original Version / Rehearsal) 02:57
13. Your Love's An Attitude 05:59

Лог создания рипа

Exact Audio Copy V1.0 beta 3 from 29. August 2011
EAC extraction logfile from 4. August 2013, 11:20
Chicago / Chicago X
Used drive : PLEXTOR BD-R PX-B950SA Adapter: 6 ID: 0
Read mode : SecureUtilize accurate stream : YesDefeat audio cache : YesMake use of C2 pointers : No
Read offset correction : 6Overread into Lead-In and Lead-Out : NoFill up missing offset samples with silence : YesDelete leading and trailing silent blocks : NoNull samples used in CRC calculations : YesUsed interface : Native Win32 interface for Win NT & 2000
Used output format : Internal WAV RoutinesSample format : 44.100 Hz; 16 Bit; Stereo
TOC of the extracted CD
Track | Start | Length | Start sector | End sector --------------------------------------------------------- 1 | 0:00.00 | 3:02.50 | 0 | 13699 2 | 3:02.50 | 3:25.17 | 13700 | 29091 3 | 6:27.67 | 3:21.35 | 29092 | 44201 4 | 9:49.27 | 3:59.25 | 44202 | 62151 5 | 13:48.52 | 3:55.68 | 62152 | 79844 6 | 17:44.45 | 3:05.37 | 79845 | 93756 7 | 20:50.07 | 3:33.63 | 93757 | 109794 8 | 24:23.70 | 3:32.05 | 109795 | 125699 9 | 27:56.00 | 3:35.60 | 125700 | 141884 10 | 31:31.60 | 3:36.72 | 141885 | 158156 11 | 35:08.57 | 3:08.15 | 158157 | 172271 12 | 38:16.72 | 2:37.35 | 172272 | 184081 13 | 40:54.32 | 5:59.48 | 184082 | 211054
Range status and errors
Selected range
Filename C:\Users\Meijin\Desktop\Lossless Galaxy ALLexxess\Chicago\2012 Studio Albums 1969-1978 (10CD Box Set Rhino Records)\1976 Chicago X\Chicago - Chicago X.wav
Peak level 99.9 % Extraction speed 7.0 X Range quality 99.9 % Test CRC AA7119A2 Copy CRC AA7119A2 Copy OK
No errors occurred
AccurateRip summary
Track 1 accurately ripped (confidence 16) [AD69FA26] (AR v2)Track 2 accurately ripped (confidence 16) [292DD461] (AR v2)Track 3 accurately ripped (confidence 16) [968F6925] (AR v2)Track 4 accurately ripped (confidence 16) [E498A4A0] (AR v2)Track 5 accurately ripped (confidence 16) [5CB927E1] (AR v2)Track 6 accurately ripped (confidence 16) [6413EC26] (AR v2)Track 7 accurately ripped (confidence 16) [FE90DC15] (AR v2)Track 8 accurately ripped (confidence 16) [5CC45A54] (AR v2)Track 9 accurately ripped (confidence 16) [47FDC357] (AR v2)Track 10 accurately ripped (confidence 16) [35A59FDD] (AR v2)Track 11 accurately ripped (confidence 16) [280829BB] (AR v2)Track 12 accurately ripped (confidence 16) [30A6EE97] (AR v2)Track 13 accurately ripped (confidence 16) [BF21AFC2] (AR v2)
All tracks accurately ripped
End of status report
==== Log checksum C29CE4A8F679E268AEC8855E127E451DE58E60E6B5FD80A97C28E40467F9AB0A ====

Содержание индексной карты (.CUE)

REM GENRE "Rock / Jazz Rock / Pop Rock"REM DATE 1976REM DISCID B90AFE0DREM COMMENT "ExactAudioCopy v1.0b3"PERFORMER "Chicago"TITLE "Chicago X"FILE "Chicago - Chicago X.flac" WAVE TRACK 01 AUDIO TITLE "Once Or Twice" PERFORMER "Chicago" INDEX 01 00:00:00 TRACK 02 AUDIO TITLE "You Are On My Mind" PERFORMER "Chicago" INDEX 00 03:01:15 INDEX 01 03:02:50 TRACK 03 AUDIO TITLE "Skin Tight" PERFORMER "Chicago" INDEX 00 06:26:17 INDEX 01 06:27:67 TRACK 04 AUDIO TITLE "If You Leave Me Now" PERFORMER "Chicago" INDEX 00 09:47:52 INDEX 01 09:49:27 TRACK 05 AUDIO TITLE "Together Again" PERFORMER "Chicago" INDEX 00 13:47:00 INDEX 01 13:48:52 TRACK 06 AUDIO TITLE "Another Rainy Day In New York City" PERFORMER "Chicago" INDEX 00 17:42:02 INDEX 01 17:44:45 TRACK 07 AUDIO TITLE "Mama Mama" PERFORMER "Chicago" INDEX 01 20:50:07 TRACK 08 AUDIO TITLE "Scrapbook" PERFORMER "Chicago" INDEX 00 24:21:10 INDEX 01 24:23:70 TRACK 09 AUDIO TITLE "Gently I'll Wake You" PERFORMER "Chicago" INDEX 00 27:52:00 INDEX 01 27:56:00 TRACK 10 AUDIO TITLE "You Get It Up" PERFORMER "Chicago" INDEX 01 31:31:60 TRACK 11 AUDIO TITLE "Hope For Love" PERFORMER "Chicago" INDEX 00 35:05:37 INDEX 01 35:08:57 TRACK 12 AUDIO TITLE "I'd Rather Be Rich (Original Version / Rehearsal) / Bonus" PERFORMER "Chicago" INDEX 00 38:12:45 INDEX 01 38:16:72 TRACK 13 AUDIO TITLE "Your Love's An Attitude / Bonus" PERFORMER "Chicago" INDEX 00 40:52:05 INDEX 01 40:54:32

Лог проверки качества

-----------------------
DON'T MODIFY THIS FILE
-----------------------
PERFORMER: auCDtect Task Manager, ver. 1.5.1RC3 build 1.5.1.4Copyright (c) 2008-2010 y-soft. All rights reservedhttp://y-soft.org
ANALYZER: auCDtect: CD records authenticity detector, version 0.8.2Copyright (c) 2004 Oleg Berngardt. All rights reserved.Copyright (c) 2004 Alexander Djourik. All rights reserved.
FILE: Chicago - Chicago X.wav Size: 496401404 Hash: 84FC6CD31F5F8DDEA51983FE4F66D357 Accuracy: -m8 Conclusion: CDDA 99% Signature: 362D3BC763F5BE4C52E57F87FBFC531C889C39A8FILE: Chicago - Chicago X.flac Size: 316317090 Hash: 84FC6CD31F5F8DDEA51983FE4F66D357 Accuracy: -m8 Conclusion: CDDA 99% Signature: 4F8A4512206C85AEB5941B063E5C5F699982334C

Back, Disc, Matrix, Spectrogram

1977 - Chicago XI 00:52:19

01. Mississippi Delta City Blues 04:41
02. Baby, What A Big Surprise 03:06
03. Till The End Of Time 04:48
04. Policeman 04:02
05. Take Me Back To Chicago 05:16
06. Vote For Me 03:47
07. Takin' It On Uptown 04:47
08. This Time 04:46
09. The Inner Struggles Of A Man 02:43
10. Prelude (Little One) 00:52
11. Little One 05:44
Bonus Selections:
12. Wish I Could Fly (Rehearsal) 03:46
13. Paris (Rehearsal) 03:54

Лог создания рипа

Exact Audio Copy V1.0 beta 3 from 29. August 2011
EAC extraction logfile from 4. August 2013, 10:49
Chicago / Chicago XI
Used drive : PLEXTOR BD-R PX-B950SA Adapter: 6 ID: 0
Read mode : SecureUtilize accurate stream : YesDefeat audio cache : YesMake use of C2 pointers : No
Read offset correction : 6Overread into Lead-In and Lead-Out : NoFill up missing offset samples with silence : YesDelete leading and trailing silent blocks : NoNull samples used in CRC calculations : YesUsed interface : Native Win32 interface for Win NT & 2000
Used output format : Internal WAV RoutinesSample format : 44.100 Hz; 16 Bit; Stereo
TOC of the extracted CD
Track | Start | Length | Start sector | End sector --------------------------------------------------------- 1 | 0:00.00 | 4:41.20 | 0 | 21094 2 | 4:41.20 | 3:06.50 | 21095 | 35094 3 | 7:47.70 | 4:48.55 | 35095 | 56749 4 | 12:36.50 | 4:02.35 | 56750 | 74934 5 | 16:39.10 | 5:16.62 | 74935 | 98696 6 | 21:55.72 | 3:47.08 | 98697 | 115729 7 | 25:43.05 | 4:47.20 | 115730 | 137274 8 | 30:30.25 | 4:46.37 | 137275 | 158761 9 | 35:16.62 | 2:43.63 | 158762 | 171049 10 | 38:00.50 | 0:52.12 | 171050 | 174961 11 | 38:52.62 | 5:44.38 | 174962 | 200799 12 | 44:37.25 | 3:46.70 | 200800 | 217819 13 | 48:24.20 | 3:54.52 | 217820 | 235421
Range status and errors
Selected range
Filename C:\Users\Meijin\Desktop\Lossless Galaxy ALLexxess\Chicago\2012 Studio Albums 1969-1978 (10CD Box Set Rhino Records)\1977 Chicago XI\Chicago - Chicago XI.wav
Peak level 98.9 % Extraction speed 7.4 X Range quality 100.0 % Test CRC 4F16FD11 Copy CRC 4F16FD11 Copy OK
No errors occurred
AccurateRip summary
Track 1 accurately ripped (confidence 16) [89A42E01] (AR v2)Track 2 accurately ripped (confidence 16) [869E0B34] (AR v2)Track 3 accurately ripped (confidence 16) [EDBC1BE4] (AR v2)Track 4 accurately ripped (confidence 16) [6573D520] (AR v2)Track 5 accurately ripped (confidence 16) [34FA4736] (AR v2)Track 6 accurately ripped (confidence 16) [5F851F83] (AR v2)Track 7 accurately ripped (confidence 16) [CD8B9D8F] (AR v2)Track 8 accurately ripped (confidence 15) [62FB6EEB] (AR v2)Track 9 accurately ripped (confidence 16) [127EF927] (AR v2)Track 10 accurately ripped (confidence 16) [01D4EDCA] (AR v2)Track 11 accurately ripped (confidence 16) [38DDAEED] (AR v2)Track 12 accurately ripped (confidence 16) [42D25D3B] (AR v2)Track 13 accurately ripped (confidence 16) [CA4F22B3] (AR v2)
All tracks accurately ripped
End of status report
==== Log checksum 74EC58A5689FE1084A4C8CCF313856ACEC055110DCC228A4855A0F47ED431DFD ====

Содержание индексной карты (.CUE)

REM GENRE "Rock / Jazz Rock / Pop Rock"REM DATE 1977REM DISCID B00C420DREM COMMENT "ExactAudioCopy v1.0b3"PERFORMER "Chicago"TITLE "Chicago XI"FILE "Chicago - Chicago XI.flac" WAVE TRACK 01 AUDIO TITLE "Mississippi Delta City Blues" PERFORMER "Chicago" INDEX 01 00:00:00 TRACK 02 AUDIO TITLE "Baby, What A Big Surprise" PERFORMER "Chicago" INDEX 00 04:38:52 INDEX 01 04:41:20 TRACK 03 AUDIO TITLE "Till The End Of Time" PERFORMER "Chicago" INDEX 00 07:44:70 INDEX 01 07:47:70 TRACK 04 AUDIO TITLE "Policeman" PERFORMER "Chicago" INDEX 01 12:36:50 TRACK 05 AUDIO TITLE "Take Me Back To Chicago" PERFORMER "Chicago" INDEX 01 16:39:10 TRACK 06 AUDIO TITLE "Vote For Me" PERFORMER "Chicago" INDEX 01 21:55:72 TRACK 07 AUDIO TITLE "Takin' It On Uptown" PERFORMER "Chicago" INDEX 01 25:43:05 TRACK 08 AUDIO TITLE "This Time" PERFORMER "Chicago" INDEX 00 30:27:70 INDEX 01 30:30:25 TRACK 09 AUDIO TITLE "The Inner Struggles Of A Man" PERFORMER "Chicago" INDEX 00 35:14:05 INDEX 01 35:16:62 TRACK 10 AUDIO TITLE "Prelude (Little One)" PERFORMER "Chicago" INDEX 01 38:00:50 TRACK 11 AUDIO TITLE "Little One" PERFORMER "Chicago" INDEX 01 38:52:62 TRACK 12 AUDIO TITLE "Wish I Could Fly (Rehearsal) / Bonus" PERFORMER "Chicago" INDEX 00 44:32:52 INDEX 01 44:37:25 TRACK 13 AUDIO TITLE "Paris (Rehearsal) / Bonus" PERFORMER "Chicago" INDEX 00 48:22:52 INDEX 01 48:24:20

Лог проверки качества

-----------------------
DON'T MODIFY THIS FILE
-----------------------
PERFORMER: auCDtect Task Manager, ver. 1.5.1RC3 build 1.5.1.4Copyright (c) 2008-2010 y-soft. All rights reservedhttp://y-soft.org
ANALYZER: auCDtect: CD records authenticity detector, version 0.8.2Copyright (c) 2004 Oleg Berngardt. All rights reserved.Copyright (c) 2004 Alexander Djourik. All rights reserved.
FILE: Chicago - Chicago XI.wav Size: 553712588 Hash: C20CA89C19A19A9CB19C1D698F6DBD07 Accuracy: -m8 Conclusion: CDDA 100% Signature: 4881601A39042C8B3B8CF7B26CE762C4B0907083FILE: Chicago - Chicago XI.flac Size: 348880464 Hash: C20CA89C19A19A9CB19C1D698F6DBD07 Accuracy: -m8 Conclusion: CDDA 100% Signature: E02A8A6F8BE22037C1ED8E348056E35B6DB4069A

Back, Disc, Matrix, Spectrogram

1978 - Hot Streets 00:45:28

01. Alive Again 04:11
02. The Greatest Love On Earth 03:08
03. Little Miss Lovin' 04:35
04. Hot Streets 05:22
05. Take A Chance 04:45
06. Gone Long Gone 03:59
07. Ain't It Time 04:14
08. Love Was New 03:32
09. No Tell Lover 04:16
10. Show Me The Way 03:40
Bonus Selection:
11. Love Was New (Alternate Vocal) 03:30

Лог создания рипа

Exact Audio Copy V1.0 beta 3 from 29. August 2011
EAC extraction logfile from 4. August 2013, 10:18
Chicago / Hot Streets
Used drive : PLEXTOR BD-R PX-B950SA Adapter: 6 ID: 0
Read mode : SecureUtilize accurate stream : YesDefeat audio cache : YesMake use of C2 pointers : No
Read offset correction : 6Overread into Lead-In and Lead-Out : NoFill up missing offset samples with silence : YesDelete leading and trailing silent blocks : NoNull samples used in CRC calculations : YesUsed interface : Native Win32 interface for Win NT & 2000
Used output format : Internal WAV RoutinesSample format : 44.100 Hz; 16 Bit; Stereo
TOC of the extracted CD
Track | Start | Length | Start sector | End sector --------------------------------------------------------- 1 | 0:00.00 | 4:11.40 | 0 | 18864 2 | 4:11.40 | 3:18.00 | 18865 | 33714 3 | 7:29.40 | 4:35.67 | 33715 | 54406 4 | 12:05.32 | 5:22.73 | 54407 | 78629 5 | 17:28.30 | 4:45.10 | 78630 | 100014 6 | 22:13.40 | 3:59.70 | 100015 | 118009 7 | 26:13.35 | 4:14.50 | 118010 | 137109 8 | 30:28.10 | 3:32.52 | 137110 | 153061 9 | 34:00.62 | 4:16.08 | 153062 | 172269 10 | 38:16.70 | 3:40.45 | 172270 | 188814 11 | 41:57.40 | 3:30.67 | 188815 | 204631
Range status and errors
Selected range
Filename C:\Users\Meijin\Desktop\Lossless Galaxy ALLexxess\Chicago\2012 Studio Albums 1969-1978 (10CD Box Set Rhino Records)\1978 Hot Streets\Chicago - Hot Streets.wav
Peak level 98.8 % Extraction speed 7.1 X Range quality 100.0 % Test CRC C14011A8 Copy CRC C14011A8 Copy OK
No errors occurred
AccurateRip summary
Track 1 accurately ripped (confidence 17) [57B318DA] (AR v2)Track 2 accurately ripped (confidence 17) [C27BD223] (AR v2)Track 3 accurately ripped (confidence 17) [C0F4EA6A] (AR v2)Track 4 accurately ripped (confidence 17) [7405722D] (AR v2)Track 5 accurately ripped (confidence 17) [D2373034] (AR v2)Track 6 accurately ripped (confidence 17) [7AC306AA] (AR v2)Track 7 accurately ripped (confidence 17) [3CBE7309] (AR v2)Track 8 accurately ripped (confidence 17) [4BC08120] (AR v2)Track 9 accurately ripped (confidence 17) [CF9BEC72] (AR v2)Track 10 accurately ripped (confidence 17) [7FD02D2C] (AR v2)Track 11 accurately ripped (confidence 17) [15CB6DFC] (AR v2)
All tracks accurately ripped
End of status report
==== Log checksum 5BA760451D1D7F98844E4E152F34B6D7CCB619F75ED8C07A01B8DAC1446EBBD5 ====

Содержание индексной карты (.CUE)

REM GENRE "Rock / Jazz Rock / Pop Rock"REM DATE 1978REM DISCID 840AA80BREM COMMENT "ExactAudioCopy v1.0b3"PERFORMER "Chicago"TITLE "Hot Streets"FILE "Chicago - Hot Streets.flac" WAVE TRACK 01 AUDIO TITLE "Alive Again" PERFORMER "Chicago" INDEX 01 00:00:00 TRACK 02 AUDIO TITLE "The Greatest Love On Earth" PERFORMER "Chicago" INDEX 00 04:07:72 INDEX 01 04:11:40 TRACK 03 AUDIO TITLE "Little Miss Lovin'" PERFORMER "Chicago" INDEX 01 07:29:40 TRACK 04 AUDIO TITLE "Hot Streets" PERFORMER "Chicago" INDEX 01 12:05:32 TRACK 05 AUDIO TITLE "Take A Chance" PERFORMER "Chicago" INDEX 00 17:24:70 INDEX 01 17:28:30 TRACK 06 AUDIO TITLE "Gone Long Gone" PERFORMER "Chicago" INDEX 00 22:10:55 INDEX 01 22:13:40 TRACK 07 AUDIO TITLE "Ain't It Time" PERFORMER "Chicago" INDEX 01 26:13:35 TRACK 08 AUDIO TITLE "Love Was New" PERFORMER "Chicago" INDEX 00 30:25:45 INDEX 01 30:28:10 TRACK 09 AUDIO TITLE "No Tell Lover" PERFORMER "Chicago" INDEX 00 33:57:62 INDEX 01 34:00:62 TRACK 10 AUDIO TITLE "Show Me The Way" PERFORMER "Chicago" INDEX 00 38:13:65 INDEX 01 38:16:70 TRACK 11 AUDIO TITLE "Love Was New (Alternate Vocal) / Bonus" PERFORMER "Chicago" INDEX 00 41:52:72 INDEX 01 41:57:40

Лог проверки качества

-----------------------
DON'T MODIFY THIS FILE
-----------------------
PERFORMER: auCDtect Task Manager, ver. 1.5.1RC3 build 1.5.1.4Copyright (c) 2008-2010 y-soft. All rights reservedhttp://y-soft.org
ANALYZER: auCDtect: CD records authenticity detector, version 0.8.2Copyright (c) 2004 Oleg Berngardt. All rights reserved.Copyright (c) 2004 Alexander Djourik. All rights reserved.
FILE: Chicago - Hot Streets.wav Size: 481294508 Hash: D1EE83A56AC320196F7C0D1EBE857F33 Accuracy: -m8 Conclusion: CDDA 100% Signature: 3BA76335868D9B1BE1E432E90EF613BF8136925BFILE: Chicago - Hot Streets.flac Size: 309576873 Hash: D1EE83A56AC320196F7C0D1EBE857F33 Accuracy: -m8 Conclusion: CDDA 100% Signature: 958CE2E7834129CF24D8A05EF5A9B1AF18504FEE

Back, Disc, Matrix, Spectrogram

Доп. информация

Rhino Records / Warner Bros UK / Box Set / Limited Edition
Remastered and Expanded Albums Versions
Catalog Box: 8122796958
Catalog CDs: 8122796958-1~10
Made in England
Dynamic Range: 8 / 10 / 8 / 7 / 8 / 8 / 10 / 7 / 7 / 9
Released Year: 2012

Об издании

EU-only 10 CD box containing the first decade of studio recordings by the veteran Pop/Rock outfit. Chicago began as a politically charged, sometimes experimental, rock band and later moved to a predominantly softer sound, generating several hit ballads. Once the group began making records, fans rewarded the group with record sales of 100,000,000, 21 Top 10 singles, five consecutive #1 albums, 11 Number One Singles and five Gold singles. An incredible 25 of their 32 albums have been certified platinum. To date, Chicago is the first American band to chart Top 40 albums in five decades - a landmark accomplishment. Housed in a small clamshell box, The Studio Albums 1969-1978 contains 10 CDs in paper-sleeve mini-jackets.
P.S. Благодарности ALLexxess / Galaxy за предоставленную информацию
Other forum [Profile] [PM]
Display posts from previous:    
Reply to topic

The time now is: Today 12:28

All times are GMT + 3 Hours



You cannot post new topics in this forum
You cannot reply to topics in this forum
You cannot edit your posts in this forum
You cannot delete your posts in this forum
You cannot vote in polls in this forum
You cannot attach files in this forum
You cannot download files in this forum