Сегодня идет свободное скачивание без начисления Download

Безумцы / Mad Men (2013) WEB-DLRip (Сезон 6, серии 1-3 из 13) Fox Life (обновляемая)

Ответить на тему
 
Автор
Сообщение

UndegraundMen ®

Стаж: 5 лет 10 месяцев

Сообщений: 25860

Торрент-статистика

Пост 09-Авг-2013 23:10

[Цитировать]

Безумцы / Mad Men (2013) WEB-DLRip (Сезон 6, серии 1-3 из 13) Fox Life (Обновляемая)- Год выпуска: 2013
Жанр: Драма
Страна: США
Перевод: Профессиональный (многоголосый закадровый) (FoxLife)
Субтитры: Отсутствуют-Режиссер: Фил Абрахам, Джон Слэттери
Актеры: Джон Хэмм, Элизабет Мосс, Винсент Картайзер, Джэньюэри Джонс, Кристина Хендрикс, Брайан Бэтт, Аарон Стэтон, Рич Соммер, Джон Слэттери и др.,- -Описание:
США, 60-е годы ХХ века. В центре повествования - работа рекламного Агентства "Стерлинг-Купер", расположенного на престижной Медисон-авеню в центре Нью-Йорка, и жизнь его креативного директора - мастера манипуляций и интриг - Дона Дрейпера (Джон Хэмм). Находясь на вершине карьеры, он противостоит конкурентам, стараясь сберечь своe положение в компании. Служебные и семейные перипетии Дона и его коллег происходят на фоне глобальных событий в жизни американского общества тех лет…-Продолжительность: ~00:47:00 серия
Качество видео: WEB-DLRip
Сэмпл: Скачать-Видеокодек: Xvid
Битрейт видео: ~1347 kb/s
Размер кадра: 720x400 (16:9)
Аудиокодек: MP3
Аудио Rus: 128 kb/s, 2ch, 48,0 КГц
Аудио Eng: 128 kb/s, 2ch, 48,0 КГц
Релиз от: -Скриншоты:
         -

Награды сериала:

Золотой глобус
2010
Лучший драматический сериал
2009
Лучший драматический сериал
2008
Лучшая мужская роль на ТВ (драма), Лучший драматический сериал
Эмми
2011 год
Лучший драматический сериал
2010 год
Лучший драматический сериал
2009 год
Лучший драматический сериал
2008 год
Лучший драматический сериал
Лучшие вступительные титры

MI

General
Complete name : G:\Раздачи\0_NNM\Mad Men Season 6 MVO FoxLife\Mad.Men.s06e01.WEBDLRip.NewStudio.TV.avi
Format : AVI
Format/Info : Audio Video Interleave
File size : 549 MiB
Duration : 47mn 28s
Overall bit rate : 1 618 Kbps
Writing application : VirtualDubMod 1.5.10.2 (build 2540/release)
Writing library : VirtualDubMod build 2540/release
Video
ID : 0
Format : MPEG-4 Visual
Format profile : Advanced Simple@L5
Format settings, BVOP : 2
Format settings, QPel : No
Format settings, GMC : No warppoints
Format settings, Matrix : Default (MPEG)
Codec ID : XVID
Codec ID/Hint : XviD
Duration : 47mn 28s
Bit rate : 1 348 Kbps
Width : 720 pixels
Height : 400 pixels
Display aspect ratio : 16:9
Frame rate : 23.976 fps
Color space : YUV
Chroma subsampling : 4:2:0
Bit depth : 8 bits
Scan type : Progressive
Compression mode : Lossy
Bits/(Pixel*Frame) : 0.195
Stream size : 458 MiB (83%)
Writing library : XviD 64
Audio #1
ID : 1
Format : MPEG Audio
Format version : Version 1
Format profile : Layer 3
Mode : Joint stereo
Mode extension : MS Stereo
Codec ID : 55
Codec ID/Hint : MP3
Duration : 47mn 28s
Bit rate mode : Constant
Bit rate : 128 Kbps
Channel(s) : 2 channels
Sampling rate : 48.0 KHz
Compression mode : Lossy
Stream size : 43.5 MiB (8%)
Alignment : Aligned on interleaves
Interleave, duration : 42 ms (1.00 video frame)
Interleave, preload duration : 504 ms
Audio #2
ID : 2
Format : MPEG Audio
Format version : Version 1
Format profile : Layer 3
Mode : Joint stereo
Mode extension : MS Stereo
Codec ID : 55
Codec ID/Hint : MP3
Duration : 47mn 28s
Bit rate mode : Constant
Bit rate : 128 Kbps
Channel(s) : 2 channels
Sampling rate : 48.0 KHz
Compression mode : Lossy
Stream size : 43.5 MiB (8%)
Alignment : Aligned on interleaves
Interleave, duration : 42 ms (1.00 video frame)
Interleave, preload duration : 504 ms

Внимание! Раздача ведётся путём добавления новых серий

Внимание! Раздача ведётся путём добавления новых серий; при каждом добавлении создаётся новый торрент.
Чтобы начать докачку новой серии, пользователям необходимо сделать следующее:
1. Остановить скачивание;
2. Удалить старый торрент у себя из клиента (старые серии удалять не надо);
3. Скачать новый торрент и запустить его у себя в клиенте вместо старого, при этом указать клиенту путь в старую папку куда и должно происходить скачивание новых серий. Ваш клиент при этом должен произвести хеширование (проверку) старой папки и будет докачивать только те серии, которых у вас ещё нет. Старые серии при этом не удаляются, а продолжают раздаваться! Eсли вы уже удалили старые серии, то предотвратить повторную закачку старых серий можно, отжав галочку в соответствующих местах при запуске нового торрента.
Вне форума [Профиль] [ЛС]
Показать сообщения:    
Ответить на тему

Текущее время: Сегодня 04:45

Часовой пояс: GMT + 3



Вы не можете начинать темы
Вы не можете отвечать на сообщения
Вы не можете редактировать свои сообщения
Вы не можете удалять свои сообщения
Вы не можете голосовать в опросах
Вы не можете прикреплять файлы к сообщениям
Вы не можете скачивать файлы