Сегодня идет свободное скачивание без начисления Download

Всё тип-топ, или Жизнь на палубе / The Suite Life on Deck [Сезон 3, серии 1-22 (22)] (2010) SATRip

Ответить на тему
 
Автор
Сообщение

UndegraundMen ®

Стаж: 5 лет 6 месяцев

Сообщений: 25860

Торрент-статистика

Пост 08-Авг-2013 17:01

[Цитировать]

Всё тип-топ, или Жизнь на палубе / The Suite Life on Deck [Сезон 3, 1-22 (22)] (2010) SATRip- Русское название: Всё тип-топ, или жизнь на палубе
Оригинальное название: The Suite Life on Deck
Год выпуска: 2010
Жанр: Комедия, приключения, семейный
Перевод: Дублированный

Режиссер: Ричард Коррелл, Боб Коэрр, Фил Льюис
Актеры: Бренда Сонг, Дилан Спроус, Коул Спроус, Дебби Райан, Фил Льюис, Мэттью Тиммонс, Лерреми Док Шоу, Эрин Кардильо, Уинделл Миддлбрукс, Рэйчел Кэтрин Белл
Описание фильма:
Роскошный морской лайнер готовится к длительному путешествию. На борту старые знакомые из отеля «Тип-топ»: близнецы Зак и Коди, строгий Мистер Мозби, надевший форму менеджера морского отеля, и Лондон Тип-Топ — дочь владельца парохода. Попутно с учёбой на борту, им предстоит встретить много новых друзей, останавливаясь в портах разных стран, где их ждут новые приключения.
Продолжительность: ~ 00:22:00 серия
Качество видео: SATRip
Сэмпл: Скачать
Видео: XviD, 704x528 (4:3), 25.000 fps, ~1536kbps, 0.165 bit/pixel
Аудио: AC3, 48 kHz, 2 ch, 192kbps

MI

Полное имя : Жизнь на борту - 3 сезон\09.avi
Формат : AVI
Формат/Информация : Audio Video Interleave
Размер файла : 301 Мбайт
Продолжительность : 21 м.
Общий поток : 1949 Кбит/сек
Программа кодирования : VirtualDubMod 1.5.10.3 | www.virtualdub-fr.org || (build 2550/release)
Библиотека кодирования : VirtualDubMod build 2550/release
Видео
Идентификатор : 0
Формат : MPEG-4 Visual
Профиль формата : Advanced Simple@L5
Параметр BVOP формата : 2
Параметр QPel формата : Нет
Параметр GMC формата : Без точки перехода
Параметр матрицы формата : Default (H.263)
Идентификатор кодека : XVID
Идентификатор кодека/Подсказка : XviD
Продолжительность : 21 м.
Битрейт : 1747 Кбит/сек
Ширина : 704 пикселя
Высота : 528 пикселей
Соотношение сторон : 4:3
Частота кадров : 25,000 кадров/сек
Цветовое пространство : YUV
Субдискретизация насыщенности : 4:2:0
Битовая глубина : 8 бит
Тип развёртки : Прогрессивная
Метод сжатия : С потерями
Бит/(Пиксели*Кадры) : 0.188
Размер потока : 269 Мбайт (90%)
Библиотека кодирования : XviD 63
Аудио
Идентификатор : 1
Формат : AC-3
Формат/Информация : Audio Coding 3
Расширение режима : CM (complete main)
Параметр Endianness формата : Big
Идентификатор кодека : 2000
Продолжительность : 21 м.
Вид битрейта : Постоянный
Битрейт : 192 Кбит/сек
Каналы : 2 канала
Расположение каналов : Front: L R
Частота : 48,0 КГц
Битовая глубина : 16 бит
Метод сжатия : С потерями
Размер потока : 29,6 Мбайт (10%)
Выравнивание : Разделение по промежуткам
Продолжительность промежутка : 40 мс. (1,00 видеокадр)
Время предзагрузки промежутка : 500 мс.
Скриншоты:
       
Вне форума [Профиль] [ЛС]
Показать сообщения:    
Ответить на тему

Текущее время: Сегодня 19:06

Часовой пояс: GMT + 3



Вы не можете начинать темы
Вы не можете отвечать на сообщения
Вы не можете редактировать свои сообщения
Вы не можете удалять свои сообщения
Вы не можете голосовать в опросах
Вы не можете прикреплять файлы к сообщениям
Вы не можете скачивать файлы