Сегодня идет свободное скачивание без начисления Download

Ох уж эти 70-е / Шоу 70-х / That \'70s Show (1998-2002) WEB-DLRip [3 Сезона + 4 сезон (1-16 серии)] (Обновляемая)

Ответить на тему
 
Автор
Сообщение

UndegraundMen ®

Стаж: 5 лет 7 месяцев

Сообщений: 25860

Торрент-статистика

Пост 07-Авг-2013 11:00

[Цитировать]

Ох уж эти 70-е / Шоу 70-х / That '70s Show (1998-2002) WEB-DLRip [3 Сезона + 4 сезон (1-16 серии)] (Обновляемая) - Год выпуска: 1998-2002
Жанр: Комедия, Ситком
Перевод: Многоголосый закадровый, профессиональный
Вид субтитров: Отсутствуют
Релиз группа: Несмертельное оружие

Режиссер: Дэвид Трейнер
Актеры: Мила Кунис, Дэнни Мастерсон, Лаура Препон, Уилмер Вальдеррама, Дебра Джо Рапп, Кертвуд Смит, Дон Старк, Эштон Катчер, Тофер Грейс, Таня Робертс, Томми Чонг, Лиза Робин Келли, Джош Мейерс, Мо Гаффни, Эллисон Мунн, Тим Рейд, Шеннон Элизабет и др.
Описание фильма:
«Шоу 70-х» рассказывает о жизни нескольких 17 летних подростков живущих в Поинт Плейс, Висконсин.
Эрик Форман — обычный подросток, хороший парень, невысокий и немного неуклюжий. Он уверен в себе, остроумен и невозмутим. Его отец Ред — бывший морпех, ветеран Второй мировой и Корейской войн, воспитывает его довольно строго. Отравляет Эрику жизнь и старшая сестра Лори, которой нравится мучить брата и манипулировать родителями. Мать Эрика и Лори Китти-бойкая женщина в возрасте и любительница выпить, но при этом чрезмерно заботится о детях.
По соседству с ними живет девушка, Донна Пинсиотти, и ее родители, Боб и Мидж. Остальные участники тусовки: Фез, иностранный студент по обмену, который пытается понять Американскую культуру, Джеки Бургхат, ее бывший и настоящий парень, Майкл Келсо, и Стивен Хайд, конспиролог который верит что Ксерокс захватит весь мир.
Они обычно проводят время в подвале дома Эрика, думая о своей жизни, родителях и будущем, но им удается постоянно попадать в забавные ситуации и неудачи, живя своей нелегкой жизнью подростков.
Продолжительность: серия ~ 00:22:00
Качество видео: WEB-DLRip
Видеокодек: XviD
Аудиокодек: AC-3, 2ch
Размер кадра: 720x400
Битрейт видео: ~1800 kbps
Аудио Rus: 192 kbps |Несмертельное оружие|
Аудио Eng: 192 kbps |Original|

MediaInfo

Сезон 1

Общее
Формат: AVI
Формат/Информация: Audio Video Interleave
Размер файла: 350 Мбайт
Продолжительность: 22 м.
Общий поток: 2173 Кбит/сек
Название фильма: Ох уж эти 70-е / Сезон: 1 / Эпизод: 01 - Пилот
Режиссёр: ANTipiGo
Жанр: Comedy
Программа кодирования: VirtualDubMod 1.5.10.2 (build 2540/release)
Формат оригинала/Имя: TV-Serie
Правообладатель: Творческое объединение "Несмертельное оружие"
Видео
Идентификатор: 0
Формат: MPEG-4 Visual
Профиль формата: Advanced Simple@L5
Параметр BVOP формата: 2
Параметр QPel формата: Нет
Параметр GMC формата: Без точки перехода
Параметр матрицы формата: Default (MPEG)
Идентификатор кодека: XVID
Идентификатор кодека/Подсказка: XviD
Продолжительность: 22 м.
Битрейт: 1774 Кбит/сек
Ширина: 720 пикселей
Высота: 400 пикселей
Соотношение сторон: 16:9
Частота кадров: 23,976 кадра/сек
Цветовое пространство: YUV
Субдискретизация насыщенности: 4:2:0
Битовая глубина: 8 бит
Тип развёртки: Прогрессивная
Метод сжатия: С потерями
Бит/(Пиксели*Кадры): 0.257
Размер потока: 286 Мбайт (82%)
Библиотека кодирования: XviD 1.2.1 (UTC 2008-12-04)
Аудио #1
Идентификатор: 1
Формат: AC-3
Формат/Информация: Audio Coding 3
Расширение режима: CM (complete main)
Параметр Endianness формата: Big
Идентификатор кодека: 2000
Продолжительность: 22 м.
Вид битрейта: Постоянный
Битрейт: 192 Кбит/сек
Каналы: 2 канала
Расположение каналов: Front: L R
Частота: 48,0 КГц
Битовая глубина: 16 бит
Метод сжатия: С потерями
Размер потока: 30,9 Мбайт (9%)
Выравнивание: Разделение по промежуткам
Продолжительность промежутка: 42 мс. (1,00 видеокадр)
Время предзагрузки промежутка: 500 мс.
Заголовок: [RUS] MVO (Несмертельное оружие)
Аудио #2
Идентификатор: 2
Формат: AC-3
Формат/Информация: Audio Coding 3
Расширение режима: CM (complete main)
Параметр Endianness формата: Big
Идентификатор кодека: 2000
Продолжительность: 22 м.
Вид битрейта: Постоянный
Битрейт: 192 Кбит/сек
Каналы: 2 канала
Расположение каналов: Front: L R
Частота: 48,0 КГц
Битовая глубина: 16 бит
Метод сжатия: С потерями
Размер потока: 30,9 Мбайт (9%)
Выравнивание: Разделение по промежуткам
Продолжительность промежутка: 42 мс. (1,00 видеокадр)
Время предзагрузки промежутка: 500 мс.
Заголовок: [ENG] Original

Сезон 2

Общее
Формат: AVI
Формат/Информация: Audio Video Interleave
Размер файла: 350 Мбайт
Продолжительность: 22 м.
Общий поток: 2204 Кбит/сек
Название фильма: Ох уж эти 70-е / Сезон: 2 / Эпизод: 01 - Гаражная распродажа
Режиссёр: ANTipiGo
Жанр: Comedy
Программа кодирования: VirtualDubMod 1.5.10.2 (build 2540/release)
Формат оригинала/Имя: TV-Serie
Правообладатель: Творческое объединение "Несмертельное оружие"
Видео
Идентификатор: 0
Формат: MPEG-4 Visual
Профиль формата: Advanced Simple@L5
Параметр BVOP формата: 2
Параметр QPel формата: Нет
Параметр GMC формата: Без точки перехода
Параметр матрицы формата: Default (MPEG)
Режим смешивания: Сжатый битовый поток
Идентификатор кодека: XVID
Идентификатор кодека/Подсказка: XviD
Продолжительность: 22 м.
Битрейт: 1806 Кбит/сек
Ширина: 720 пикселей
Высота: 400 пикселей
Соотношение сторон: 16:9
Частота кадров: 23,976 кадра/сек
Цветовое пространство: YUV
Субдискретизация насыщенности: 4:2:0
Битовая глубина: 8 бит
Тип развёртки: Прогрессивная
Метод сжатия: С потерями
Бит/(Пиксели*Кадры): 0.262
Размер потока: 287 Мбайт (82%)
Библиотека кодирования: XviD 1.2.1 (UTC 2008-12-04)
Аудио #1
Идентификатор: 1
Формат: AC-3
Формат/Информация: Audio Coding 3
Расширение режима: CM (complete main)
Параметр Endianness формата: Big
Идентификатор кодека: 2000
Продолжительность: 22 м.
Вид битрейта: Постоянный
Битрейт: 192 Кбит/сек
Каналы: 2 канала
Расположение каналов: Front: L R
Частота: 48,0 КГц
Битовая глубина: 16 бит
Метод сжатия: С потерями
Размер потока: 30,5 Мбайт (9%)
Выравнивание: Разделение по промежуткам
Продолжительность промежутка: 42 мс. (1,00 видеокадр)
Время предзагрузки промежутка: 500 мс.
Заголовок: [RUS] MVO (Несмертельное оружие)
Аудио #2
Идентификатор: 2
Формат: AC-3
Формат/Информация: Audio Coding 3
Расширение режима: CM (complete main)
Параметр Endianness формата: Big
Идентификатор кодека: 2000
Продолжительность: 22 м.
Вид битрейта: Постоянный
Битрейт: 192 Кбит/сек
Каналы: 2 канала
Расположение каналов: Front: L R
Частота: 48,0 КГц
Битовая глубина: 16 бит
Метод сжатия: С потерями
Размер потока: 30,5 Мбайт (9%)
Выравнивание: Разделение по промежуткам
Продолжительность промежутка: 42 мс. (1,00 видеокадр)
Время предзагрузки промежутка: 500 мс.
Заголовок: [ENG] Original

Сезон 3

Общее
Формат: AVI
Формат/Информация: Audio Video Interleave
Размер файла: 350 Мбайт
Продолжительность: 22 м.
Общий поток: 2216 Кбит/сек
Название фильма: Ох уж эти 70-е / Сезон: 3 / Эпизод: 01 - Конопляное безумие
Режиссёр: ANTipiGo
Жанр: Comedy
Программа кодирования: VirtualDubMod 1.5.10.2 (build 2540/release)
Формат оригинала/Имя: TV-Serie
Правообладатель: Творческое объединение "Несмертельное оружие"
Видео
Идентификатор: 0
Формат: MPEG-4 Visual
Профиль формата: Advanced Simple@L5
Параметр BVOP формата: 2
Параметр QPel формата: Нет
Параметр GMC формата: Без точки перехода
Параметр матрицы формата: Default (MPEG)
Режим смешивания: Сжатый битовый поток
Идентификатор кодека: XVID
Идентификатор кодека/Подсказка: XviD
Продолжительность: 22 м.
Битрейт: 1818 Кбит/сек
Ширина: 720 пикселей
Высота: 400 пикселей
Соотношение сторон: 16:9
Частота кадров: 23,976 кадра/сек
Цветовое пространство: YUV
Субдискретизация насыщенности: 4:2:0
Битовая глубина: 8 бит
Тип развёртки: Прогрессивная
Метод сжатия: С потерями
Бит/(Пиксели*Кадры): 0.263
Размер потока: 287 Мбайт (82%)
Библиотека кодирования: XviD 1.2.1 (UTC 2008-12-04)
Аудио #1
Идентификатор: 1
Формат: AC-3
Формат/Информация: Audio Coding 3
Расширение режима: CM (complete main)
Параметр Endianness формата: Big
Идентификатор кодека: 2000
Продолжительность: 22 м.
Вид битрейта: Постоянный
Битрейт: 192 Кбит/сек
Каналы: 2 канала
Расположение каналов: Front: L R
Частота: 48,0 КГц
Битовая глубина: 16 бит
Метод сжатия: С потерями
Размер потока: 30,3 Мбайт (9%)
Выравнивание: Разделение по промежуткам
Продолжительность промежутка: 42 мс. (1,00 видеокадр)
Время предзагрузки промежутка: 500 мс.
Заголовок: [RUS] MVO (Несмертельное оружие)
Аудио #2
Идентификатор: 2
Формат: AC-3
Формат/Информация: Audio Coding 3
Расширение режима: CM (complete main)
Параметр Endianness формата: Big
Идентификатор кодека: 2000
Продолжительность: 22 м.
Вид битрейта: Постоянный
Битрейт: 192 Кбит/сек
Каналы: 2 канала
Расположение каналов: Front: L R
Частота: 48,0 КГц
Битовая глубина: 16 бит
Метод сжатия: С потерями
Размер потока: 30,3 Мбайт (9%)
Выравнивание: Разделение по промежуткам
Продолжительность промежутка: 42 мс. (1,00 видеокадр)
Время предзагрузки промежутка: 500 мс.
Заголовок: [ENG] Original

Сезон 4

Общее
Формат: AVI
Формат/Информация: Audio Video Interleave
Размер файла: 350 Мбайт
Продолжительность: 22 м.
Общий поток: 2204 Кбит/сек
Название фильма: Ох уж эти 70-е / Сезон: 4 / Эпизод: 01 - Эта замечательная жизнь
Режиссёр: ANTipiGo
Жанр: Comedy
Программа кодирования: VirtualDubMod 1.5.10.2 (build 2540/release)
Формат оригинала/Имя: TV-Serie
Правообладатель: Творческое объединение "Несмертельное оружие"
Видео
Идентификатор: 0
Формат: MPEG-4 Visual
Профиль формата: Advanced Simple@L5
Параметр BVOP формата: 2
Параметр QPel формата: Нет
Параметр GMC формата: Без точки перехода
Параметр матрицы формата: Default (MPEG)
Идентификатор кодека: XVID
Идентификатор кодека/Подсказка: XviD
Продолжительность: 22 м.
Битрейт: 1806 Кбит/сек
Ширина: 720 пикселей
Высота: 400 пикселей
Соотношение сторон: 16:9
Частота кадров: 23,976 кадра/сек
Цветовое пространство: YUV
Субдискретизация насыщенности: 4:2:0
Битовая глубина: 8 бит
Тип развёртки: Прогрессивная
Метод сжатия: С потерями
Бит/(Пиксели*Кадры): 0.261
Размер потока: 287 Мбайт (82%)
Библиотека кодирования: XviD 1.2.1 (UTC 2008-12-04)
Аудио #1
Идентификатор: 1
Формат: AC-3
Формат/Информация: Audio Coding 3
Расширение режима: CM (complete main)
Параметр Endianness формата: Big
Идентификатор кодека: 2000
Продолжительность: 22 м.
Вид битрейта: Постоянный
Битрейт: 192 Кбит/сек
Каналы: 2 канала
Расположение каналов: Front: L R
Частота: 48,0 КГц
Битовая глубина: 16 бит
Метод сжатия: С потерями
Размер потока: 30,5 Мбайт (9%)
Выравнивание: Разделение по промежуткам
Продолжительность промежутка: 42 мс. (1,00 видеокадр)
Время предзагрузки промежутка: 500 мс.
Заголовок: [RUS] MVO (Несмертельное оружие)
Аудио #2
Идентификатор: 2
Формат: AC-3
Формат/Информация: Audio Coding 3
Расширение режима: CM (complete main)
Параметр Endianness формата: Big
Идентификатор кодека: 2000
Продолжительность: 22 м.
Вид битрейта: Постоянный
Битрейт: 192 Кбит/сек
Каналы: 2 канала
Расположение каналов: Front: L R
Частота: 48,0 КГц
Битовая глубина: 16 бит
Метод сжатия: С потерями
Размер потока: 30,5 Мбайт (9%)
Выравнивание: Разделение по промежуткам
Продолжительность промежутка: 42 мс. (1,00 видеокадр)
Время предзагрузки промежутка: 500 мс.
Заголовок: [ENG] Original

-

Персонажи

Код:
[align=center][img]http://img819.imageshack.us/img819/3573/e11z.jpg[/img]
[url=http://www.kinopoisk.ru/name/30099/]Эрик Форман (Тоффер Грейс)[/url][/align]
[align=center][img]http://img16.imageshack.us/img16/3456/33gh.jpg[/img]
[url=http://www.kinopoisk.ru/name/29759/]Донна Пинсиотти (Лора Препон)[/url][/align]
[align=center][img]http://img818.imageshack.us/img818/8725/u8fy.jpg[/img]
[url=http://www.kinopoisk.ru/name/10633/]Майкл Келсо (Эштон Катчер)[/url][/align]
[align=center][img]http://img832.imageshack.us/img832/7375/2avv.jpg[/img]
[url=http://www.kinopoisk.ru/name/14845/]Стивен Хайд (Дэнни Мастерсон)[/url][/align]
[align=center][img]http://img801.imageshack.us/img801/4478/6vwz.jpg[/img]
[url=http://www.kinopoisk.ru/name/52900/]Джеки Беркхарт (Мила Кунис)[/url][/align]
[align=center][img]http://img600.imageshack.us/img600/5001/sb19.jpg[/img]
[url=http://www.kinopoisk.ru/name/33505/]Фез (Вилмер Вальдеррама)[/url][/align]
[align=center][img]http://img546.imageshack.us/img546/3397/v3um.jpg[/img]
[url=http://www.kinopoisk.ru/name/22277/]Ред Форман (Кертвуд Смит)[/url][/align]
[align=center][img]http://img109.imageshack.us/img109/1622/qhw1.jpg[/img]
[url=http://www.kinopoisk.ru/name/66183/]Китти Форман (Дебра Джо Рапп)[/url][/align]

-

Подробнее по сезонам

Сезон 1

Сезон 1 (1998-1999)
Продолжительность: серия ~ 00:22:00
Качество видео: WEB-DLRip
Видеокодек: XviD
Аудиокодек: AC-3, 2ch
Размер кадра: 720x400
Битрейт видео: ~1774 kbps
Аудио Rus: ~192 kbps |Несмертельное оружие|
Аудио Eng: ~192 kbps |Original|
СЭМПЛ-

Список серий

Серия 01 - Пилот (Pilot)
Серия 02 - День рождения Эрика (Eric's Birthday)
Серия 03 - Знак протеста (Streaking)
Серия 04 - Битва полов (Battle of the Sexists)
Серия 05 - Эрик торгует бургерами (Eric's Burger Job)
Серия 06 - Бочонок (The Keg)
Серия 07 - Ох уж это Диско (That Disco Episode)
Серия 08 - Автокино (Drive in)
Серия 09 - День благодарения (Thanksgiving)
Серия 10 - Воскресенье, проклятое воскресенье (Sunday, Bloody Sunday)
Серия 11 - Бадди-приятель Эрика (Eric's Buddy)
Серия 12 - Самое лучшее Рождество (The Best Christmas Ever)
Серия 13 - Хижина в лесу (Ski Trip)
Серия 14 - Угнанная машина (Stolen Car)
Серия 15 - Ох уж этот Рестлинг (That Wrestling Show)
Серия 16 - Первое свидание (First Date)
Серия 17 - Таблетки (The Pill)
Серия 18 - День на работе (The Career Day)
Серия 19 - Выпускной бал (Prom Night)
Серия 20 - Новая надежда (A New Hope)
Серия 21 - Водонапорная башня (Water Tower)
Серия 22 - Чувиха-панк (Punk Chick)
Серия 23 - Смерть бабули (Grandma's Dead)
Серия 24 - Хайд переезжает (Hyde Moves In)
Серия 25 - Хороший сын (The Good Son)
-Скриншоты:
       

-

Сезон 2

Сезон 2 (1999-2000)
Продолжительность: серия ~ 00:22:00
Качество видео: WEB-DLRip
Видеокодек: XviD
Аудиокодек: AC-3, 2ch
Размер кадра: 720x400
Битрейт видео: ~1806 kbps
Аудио Rus: ~192 kbps |Несмертельное оружие|
Аудио Eng: ~192 kbps |Original|
СЭМПЛ-

Список серий

Серия 01 - Гаражная распродажа (Garage Sale)
Серия 02 - Последний день Рэда (Red's Last Day)
Серия 03 - Бархатная веревка (The Velvet Rope)
Серия 04 - Лори и профессор (Laurie and the Professor)
Серия 05 - Хэллоуин (Halloween)
Серия 06 - Я люблю тортик (I Love Cake)
Серия 07 - Переночёвка (Sleepover)
Серия 08 - Эрик наказан (Eric Gets Suspended)
Серия 09 - День рождения Рэда (Red's Birthday)
Серия 10 - Лори съезжает (Laurie Moves Out)
Серия 11 - Заначка Эрика (Eric's Stash)
Серия 12 - Охота (Hunting)
Серия 13 - Новая работа Рэда (Red's New Job)
Серия 14 - Поджог дома (Burning Down the House)
Серия 15 - Первый раз (The First Time)
Серия 16 - После секса (Afterglow)
Серия 17 - Вечерняя прогулка Китти и Эрика (Kitty and Eric's Night Out)
Серия 18 - Родители в курсе (Parents Find Out)
Серия 19 - Поцелуй смерти (Kiss of Death)
Серия 20 - Серенада Келсо (Kelso's Serenade)
Серия 21 - Джеки продолжает жить дальше (Jackie Moves On)
Серия 22 - Срань господня! (Holy Crap!)
Серия 23 - Рэд увольняет работника (Red Fired Up)
Серия 24 - Клуб бойцовых кошечек (Cat Fight Club)
Серия 25 - Лунная романтика Поинт Плэйс (Moon Over Point Place)
-Скриншоты:
       

-

Сезон 3

Сезон 3 (2000-2001)
Продолжительность: серия ~ 00:22:00
Качество видео: WEB-DLRip
Видеокодек: XviD
Аудиокодек: AC-3, 2ch
Размер кадра: 720x400
Битрейт видео: ~1818 kbps
Аудио Rus: ~192 kbps |Несмертельное оружие|
Аудио Eng: ~192 kbps |Original|
СЭМПЛ-

Список серий

Серия 01 - Конопляное безумие (Reefer Madness)
Серия 02 - Рэд приходит в ярость (Red Sees Red)
Серия 03 - Отец Хайда (Hyde's Father)
Серия 04 - Слишком стар для сбора конфет, слишком молод чтобы умирать (Too Old to Trick or Treat, Too Young to Die)
Серия 05 - Роллер диско (Roller Disco)
Серия 06 - Трусики Эрика (Eric's Panties)
Серия 07 - Младенческая лихорадка (Baby Fever)
Серия 08 - Джеки грузит Хайда (Jackie Bags Hyde)
Серия 09 - Рождественская пьянка Хайда (Hyde's Christmas Rager)
Серия 10 - Домик на льду (Ice Shack)
Серия 11 - Кто хочет этого больше? (Who Wants It More?)
Серия 12 - Фез получает девчонку (Fez Gets the Girl)
Серия 13 - Ешь и смывайся (Dine and Dash)
Серия 14 - Радио шок (Radio Daze)
Серия 15 - Трусики Донны (Donna's Panties)
Серия 16 - Романтический уикенд (Romantic Weekend)
Серия 17 - День рождения Китти. (Сегодня!?) (Kitty's Birthday (That's Today?!))
Серия 18 - Тестирование Майкла Келсо (The Trials Of Michael Kelso)
Серия 19 - Шаловливый Эрик. Нет. Нет (Eric's Naughty No-No)
Серия 20 - Святые кости! (Holy Craps!)
Серия 21 - Фез встречается с Донной (Fez Dates Donna)
Серия 22 - Пьяная татушка Эрика (Eric's Drunken Tattoo)
Серия 23 - Поездочка в Канаду (Canadian Road Trip)
Серия 24 - Пропуск за кулисы (Backstage Pass)
Серия 25 - Кольцо обета (The Promise Ring)
-Скриншоты:
       

-

Сезон 4

Сезон 4 (2001-2002)
Продолжительность: серия ~ 00:22:00
Качество видео: WEB-DLRip
Видеокодек: XviD
Аудиокодек: AC-3, 2ch
Размер кадра: 720x400
Битрейт видео: ~1806 kbps
Аудио Rus: ~192 kbps |Несмертельное оружие|
Аудио Eng: ~192 kbps |Original|
СЭМПЛ-

Список серий

Серия 01 - Эта замечательная жизнь (It's A Wonderful Life)
Серия 02 - Эрик в депрессии (Eric's Depression)
Серия 03 - Пинсиотти против Формана (Pinciotti vs. Forman)
Серия 04 - Девчонка для Хайда (Hyde Gets the Girl)
Серия 05 - Прощай подвал (Bye-Bye Basement)
Серия 06 - Рецидив (The Relapse)
Серия 07 - Неудачный бал (Uncomfortable Ball Stuff)
Серия 08 - Рассказ Донны (Donna's Story)
Серия 09 - Забытый сын (Forgotten Son)
Серия 10 - Рэд и Стейси (Red and Stacey)
Серия 11 - Пятое колесо (The Third Wheel)
Серия 12 - Рождество Эрика Формана (An Eric Forman Christmas)
Серия 13 - Джеки говорит: - сыр (Jackie Says Cheese)
Серия 14 - Сексуальная кузина Эрика (Eric's Hot Cousin)
Серия 15 - Ураганный бал (Tornado Prom)
Серия 16 - Донна встречается с Келсо (Donna Dates a Kelso)
-Скриншоты:
       

-

Внимание! Раздача ведётся путём добавления новых серий!

Внимание! Раздача ведётся путём добавления новых серий; при каждом добавлении создаётся новый торрент.
Чтобы начать докачку новой серии, пользователям необходимо сделать следующее:
(1) остановить скачивание;
(2) удалить старый торрент у себя из клиента (старые серии удалять не надо);
(3) скачать новый торрент и запустить его у себя в клиенте вместо старого, при этом указать клиенту путь в старую папку куда и должно происходить скачивание новых серий.Ваш клиент при этом должен произвести хеширование (проверку) старой папки (если не производит сам - помогите ему сделать это), и будет докачивать только те серии которых у вас ещё нет. Старые серии при этом не удаляются, а продолжают раздаваться!Eсли вы уже удалили старые серии, то предотвратить повторную закачку старых серий можно, отжав галочку в соответствующих местах при запуске нового торрента.

-

Изменение и будущее раздачи

Изменение будут производится по мере выпуска серий. В будущем сюда будут добавляться следущие сезоны, по мере их озвучивания.
-Скриншоты:
       
Вне форума [Профиль] [ЛС]
Показать сообщения:    
Ответить на тему

Текущее время: Сегодня 05:15

Часовой пояс: GMT + 3



Вы не можете начинать темы
Вы не можете отвечать на сообщения
Вы не можете редактировать свои сообщения
Вы не можете удалять свои сообщения
Вы не можете голосовать в опросах
Вы не можете прикреплять файлы к сообщениям
Вы не можете скачивать файлы