Сегодня идет свободное скачивание без начисления Download

Виктория - победительница / Victorious (2012) WEB-DLRip [Сезон 4, серии 1-6, 8 (?)] [Nickelodeon] (Обновляемая)

Ответить на тему
 
Автор
Сообщение

UndegraundMen ®

Стаж: 5 лет 6 месяцев

Сообщений: 25861

Торрент-статистика

Пост 06-Авг-2013 11:39

[Цитировать]

Виктория - победительница / Victorious (2012) WEB-DLRip [Сезон 4, серии 1-6, 8 (?)] [Nickelodeon] (Обновляемая)- Год выпуска: 2012
Жанр: Комедия

Режиссер: Дэн Шнейдер
Актеры: Виктория Джастис, Леон Дж. Томас III, Мэтт Беннетт, Элизабет Гиллис, Ариана Гранде, Даниелла Монет, Майкл Эрик Рейд, Лэйн Нэппе
Описание фильма:
Хаос прибывает в жизнь 16-летней Тори Вега. Она переходит в новую школу, но не просто в школу, а в школу искусств. Голливудская школа искусств славится своими сумасшедшими талантливыми учениками, где студенты знают себе цену и готовы пойти на всё, чтобы добиться популярности. До сих пор Тори считала, что у неё нет особых талантов и была согласна жить в тени своей старшей сестры Трины. Но всё измениться, если Тори сможет совладать со своим талантом, славой и увидеть себя в новом свете
Продолжительность: Каждая серия по ~00:23:00
Качество видео: WEB-DLRip
Видео: 720x400 (1.80:1), 23.976 fps, XviD build 47 ~1562 kbps avg, 0.23 bit/pixel
Аудио: 48 kHz, AC3 Dolby Digital, 2/0 (L,R) ch, ~192.00 kbps avg
[url=/forum/viewtopic.php?t=678462]Сезон 2[/url]
[url=/forum/viewtopic.php?t=686847]Сезон 3[/url]

Внимание! Раздача ведётся путём добавления новых серий

Внимание! Раздача ведётся путём добавления новых серий; при каждом добавлении создаётся новый торрент. Чтобы начать докачку новой серии, пользователям необходимо сделать следующее:
(1) остановить скачивание,
(2) удалить старый торрент у себя из клиента (старые серии удалять не надо),
(3) скачать новый торрент и запустить его у себя в клиенте вместо старого, при этом указать клиенту путь в старую папку куда и должно происходить скачивание новых серий.
Ваш клиент при этом должен произвести хеширование (проверку) старой папки (если не производит сам - помогите ему сделать это), и будет докачивать только те серии которых у вас ещё нет. Старые серии при этом не удаляются, а продолжают раздаваться!
Eсли вы уже удалили старые серии, то предотвратить повторную закачку старых серий можно, отжав галочку в соответсвующих местах при запуске нового торрента.

MI

Общее
Полное имя : E:\Закачки\1\Виктория-победительница - сезон 4\Victorious.4x01.WEB-DLRip.Rus.avi
Формат : AVI
Формат/Информация : Audio Video Interleave
Размер файла : 300 Мбайт
Продолжительность : 23 м.
Общий поток : 1778 Кбит/сек
Программа кодирования : VirtualDubModRus 1.5.10.1 (build 2439/release)
Библиотека кодирования : VirtualDubMod build 2439/release
Видео
Идентификатор : 0
Формат : MPEG-4 Visual
Профиль формата : Advanced Simple@L5
Параметр BVOP формата : 2
Параметр QPel формата : Нет
Параметр GMC формата : Без точки перехода
Параметр матрицы формата : Default (MPEG)
Идентификатор кодека : XVID
Идентификатор кодека/Подсказка : XviD
Продолжительность : 23 м.
Битрейт : 1577 Кбит/сек
Ширина : 720 пикселей
Высота : 400 пикселей
Соотношение сторон : 16:9
Частота кадров : 23,976 кадра/сек
Цветовое пространство : YUV
Субдискретизация насыщенности : 4:2:0
Битовая глубина : 8 бит
Тип развёртки : Прогрессивная
Метод сжатия : С потерями
Бит/(Пиксели*Кадры) : 0.228
Размер потока : 266 Мбайт (89%)
Библиотека кодирования : XviD 63
Аудио
Идентификатор : 1
Формат : AC-3
Формат/Информация : Audio Coding 3
Расширение режима : CM (complete main)
Параметр Endianness формата : Big
Идентификатор кодека : 2000
Продолжительность : 23 м.
Вид битрейта : Постоянный
Битрейт : 192 Кбит/сек
Каналы : 2 канала
Расположение каналов : Front: L R
Частота : 48,0 КГц
Битовая глубина : 16 бит
Метод сжатия : С потерями
Размер потока : 32,4 Мбайт (11%)
Выравнивание : Разделение по промежуткам
Продолжительность промежутка : 42 мс. (1,00 видеокадр)
Время предзагрузки промежутка : 500 мс.
Скриншоты:        
       
Вне форума [Профиль] [ЛС]
Похожие темы
Форум Тема Автор Торрент Отв. Посл. сообщение
./templates/default/images/folder_dl.gif Отечественные cериалы Меч / 1 - 25 серии из 25 (Рустам Уразаев, Виктор Конисевич) [2009 г., боевик, драма, DVDRip] nsa1977
1 | 0

2 | 1370

16

2011-05-02 03:06
romo777 Последнее
./templates/default/images/folder_dl.gif Фантастика, фэнтези, ужасы, мистика Александр Авраменко, Виктория Гетто | Цикл «Волк» [6 книг] (2014-2016) [FB2] moralis
1 | 0

0 | 1762

24

2016-04-24 20:23
moralis Последнее
./templates/default/images/folder_dl.gif Фантастика, фэнтези, ужасы, мистика Виктор Мишин | Солдат (2017) [FB2] }{@R0N
1 | 0

0 | 8244

10

2017-09-29 20:29
}{@R0N Последнее
Показать сообщения:    
Ответить на тему

Текущее время: Сегодня 23:24

Часовой пояс: GMT + 3



Вы не можете начинать темы
Вы не можете отвечать на сообщения
Вы не можете редактировать свои сообщения
Вы не можете удалять свои сообщения
Вы не можете голосовать в опросах
Вы не можете прикреплять файлы к сообщениям
Вы не можете скачивать файлы