Сегодня идет свободное скачивание без начисления Download

Правосудие / Justified (2012) WEB-DLRip (Сезон 3 (полный) / Серии 1-13 из 13) Fox Crime

Ответить на тему
 
Автор
Сообщение

UndegraundMen ®

Стаж: 5 лет 8 месяцев

Сообщений: 25860

Торрент-статистика

Пост 04-Авг-2013 23:00

[Цитировать]

Правосудие / Justified (2012) WEB-DLRip (Сезон 3 (полный) / Серии 1-13 из 13) Fox Crime- Год выпуска: 2012
Страна: США
Жанр: боевик, триллер, драма, криминал
Перевод: Многоголосый закадровый, профессиональный - Fox Crime
Релиз:
Подготовка видео: Baggio
Работа со звуком: Baggio

Режиссер: Джон Эвнет, Питер Уэрнер, Майкл Диннер
Актеры: Тимоти Олифант, Уолтон Гоггинс, Ник Сирси, Джоэль Картер, Джекоб Питтс, Эрика Н. Тэйзел, Натали Зиа, Дэвид Мюнье, Рэймонд Дж. Бэрри, Джер Бернс и др.
Описание фильма:
История федерального маршала Рейлана Гивенса, современного законоохранника, все еще придерживающегося старомодных взглядов на правосудие. Из-за его строгого морального кодекса Гивенс быстро становится мишенью как для преступников, так и для коллег.
Продолжительность: ~00:43:00
Качество видео: WEB-DLRip
Видеокодек: XviD
Формат: AVI
Битрейт видео: ~1310
Размер кадра: 720x400 (16:9)
Аудио #1: Rus (MP3, 128 kb/s, 2 ch) — многоголосый закадровый
Аудио #2: Eng (MP3, 128 kb/s, 2 ch) — оригинал

MediaInfo

Общее
Полное имя : D:\Правосудие (Сезон 3) Justified (2012) WEB-DLRip - Fox Crime\Justified.s03e01.WEBDLRip.NewStudio.TV.avi
Формат : AVI
Формат/Информация : Audio Video Interleave
Размер файла : 500 Мбайт
Продолжительность : 44 м.
Общий поток : 1580 Кбит/сек
Программа кодирования : VirtualDubMod 1.5.10.2 (build 2540/release)
Библиотека кодирования : VirtualDubMod build 2540/release
Видео
Идентификатор : 0
Формат : MPEG-4 Visual
Профиль формата : Advanced Simple@L5
Параметр BVOP формата : 2
Параметр QPel формата : Нет
Параметр GMC формата : Без точки перехода
Параметр матрицы формата : Default (MPEG)
Идентификатор кодека : XVID
Идентификатор кодека/Подсказка : XviD
Продолжительность : 44 м.
Битрейт : 1310 Кбит/сек
Ширина : 720 пикселей
Высота : 400 пикселей
Соотношение сторон : 16:9
Частота кадров : 23,976 кадра/сек
Цветовое пространство : YUV
Субдискретизация насыщенности : 4:2:0
Битовая глубина : 8 бит
Тип развёртки : Прогрессивная
Метод сжатия : С потерями
Бит/(Пиксели*Кадры) : 0.190
Размер потока : 415 Мбайт (83%)
Библиотека кодирования : XviD 64
Аудио #1
Идентификатор : 1
Формат : MPEG Audio
Версия формата : Version 1
Профиль формата : Layer 3
Режим : Joint stereo
Расширение режима : MS Stereo
Идентификатор кодека : 55
Идентификатор кодека/Подсказка : MP3
Продолжительность : 44 м.
Вид битрейта : Постоянный
Битрейт : 128 Кбит/сек
Каналы : 2 канала
Частота : 48,0 КГц
Метод сжатия : С потерями
Размер потока : 40,5 Мбайт (8%)
Выравнивание : Соединение по промежуткам
Продолжительность промежутка : 42 мс. (1,00 видеокадр)
Время предзагрузки промежутка : 504 мс.
Аудио #2
Идентификатор : 2
Формат : MPEG Audio
Версия формата : Version 1
Профиль формата : Layer 3
Режим : Joint stereo
Расширение режима : MS Stereo
Идентификатор кодека : 55
Идентификатор кодека/Подсказка : MP3
Продолжительность : 44 м.
Вид битрейта : Постоянный
Битрейт : 128 Кбит/сек
Каналы : 2 канала
Частота : 48,0 КГц
Метод сжатия : С потерями
Размер потока : 40,5 Мбайт (8%)
Выравнивание : Соединение по промежуткам
Продолжительность промежутка : 42 мс. (1,00 видеокадр)
Время предзагрузки промежутка : 504 мс.
Скриншоты:
         
Вне форума [Профиль] [ЛС]
Похожие темы
Форум Тема Автор Торрент Отв. Посл. сообщение
./templates/default/images/folder_dl.gif Медицина и Здоровье Артем Максимов | 2 в 1. Массаж. Полное руководство + Целительные точки тела. Полный справочник (2015) [FB2] Omen
1 | 0

0 | 1278

14

2015-05-08 09:57
Omen Последнее
./templates/default/images/folder_dl.gif Философия и религия Дамаскин Иоанн - Точное изложение православной веры [Станислав Федосов, 2007, 128 kbps, MP3] Omen
1 | 0

0 | 469

1

2016-11-11 01:00
Omen Последнее
./templates/default/images/folder_dl.gif Философия и религия Кураев Андрей, диакон - Протестантам о Православии. Наследие Христа [Денис Гаврилов, 2015, 64 kbps, MP3] Omen
1 | 0

0 | 2991

1

2016-12-24 01:00
Omen Последнее
./templates/default/images/folder_dl.gif Компьютерная литература Арнольд Роббинс | Bash. Карманный справочник системного администратора [2-е издание] (2017) [PDF] XP1971
1 | 0

0 | 422

9

2018-07-04 13:52
XP1971 Последнее
Показать сообщения:    
Ответить на тему

Текущее время: Сегодня 08:08

Часовой пояс: GMT + 3



Вы не можете начинать темы
Вы не можете отвечать на сообщения
Вы не можете редактировать свои сообщения
Вы не можете удалять свои сообщения
Вы не можете голосовать в опросах
Вы не можете прикреплять файлы к сообщениям
Вы не можете скачивать файлы