Сегодня идет свободное скачивание без начисления Download

Маша и Медведь (34 серия) / Фотография 9 на 12 (Олег Кузовков, Олег Ужинов, Денис Червяцов) [2013 г., мультфильм, короткометражка, комедия, семейный, WEB-DL]

Ответить на тему
 
Автор
Сообщение

Omen ®

Стаж: 4 года 10 месяцев

Сообщений: 190643

Торрент-статистика

Пост 03-Авг-2013 10:28

[Цитировать]

-Маша и Медведь (34 серия)
Фотография 9 на 12
-- Производство: Россия
Год выпуска: 2013 г.
Жанр: мультфильм, короткометражка, комедия, семейный
Продолжительность: 00:06:56-Режиссер: Олег Кузовков, Олег Ужинов, Денис Червяцов-В ролях: Неугомонная девочка Маша, Престарелый Медведь, Вертихвостка Медведица, Хитрый Заяц, Белки, Ёжики, Заумная Панда, Тигр, Вечно довольная Свинья и другие домашние и лесные животные-Описание: Мультсериал про девочку Машу, которая никому не дает покоя, и в первую очередь — своему другу Медведю.- -Качество видео: WEB-DL
Контейнер: AVI
Видео кодек: XviD
Аудио кодек: MP3
Видео: 720x400, 25.000 fps, 1 909 kbps avg, 0.265 bit/pixel
Аудио: 44.1 kHz, 2 ch, 128 kbps
Cубтитры: отсутствуют-

Media Info

Код:
General
Complete name                            : C:\Documents and Settings\Admin\Рабочий стол\Ральф\Маша и Медведь\Серия 34. Фотография 9х12.avi
Format                                   : AVI
Format/Info                              : Audio Video Interleave
File size                                : 102 MiB
Duration                                 : 6mn 56s
Overall bit rate                         : 2 047 Kbps
Writing application                      : VirtualDubMod 1.5.10.3 | www.virtualdub-fr.org || (build 2550/release)
Writing library                          : VirtualDubMod build 2550/release
Video
ID                                       : 0
Format                                   : MPEG-4 Visual
Format profile                           : Advanced Simple@L5
Format settings, BVOP                    : 1
Format settings, QPel                    : No
Format settings, GMC                     : No warppoints
Format settings, Matrix                  : Default (MPEG)
Codec ID                                 : XVID
Codec ID/Hint                            : XviD
Duration                                 : 6mn 56s
Bit rate                                 : 1 909 Kbps
Width                                    : 720 pixels
Height                                   : 400 pixels
Display aspect ratio                     : 16:9
Frame rate                               : 25.000 fps
Color space                              : YUV
Chroma subsampling                       : 4:2:0
Bit depth                                : 8 bits
Scan type                                : Progressive
Compression mode                         : Lossy
Bits/(Pixel*Frame)                       : 0.265
Stream size                              : 94.8 MiB (93%)
Writing library                          : XviD 1.2.1 (UTC 2008-12-04)
Audio
ID                                       : 1
Format                                   : MPEG Audio
Format version                           : Version 1
Format profile                           : Layer 3
Codec ID                                 : 55
Codec ID/Hint                            : MP3
Duration                                 : 6mn 56s
Bit rate mode                            : Constant
Bit rate                                 : 128 Kbps
Channel(s)                               : 2 channels
Sampling rate                            : 44.1 KHz
Compression mode                         : Lossy
Stream size                              : 6.36 MiB (6%)
Alignment                                : Split accross interleaves
Interleave, duration                     : 40 ms (1.00 video frame)
Interleave, preload duration             : 500 ms
Writing library                          : LAME3.98r
Encoding settings                        : -m s -V 4 -q 2 -lowpass 17 -b 128
-Скриншоты
       
-
Вне форума [Профиль] [ЛС]
Показать сообщения:    
Ответить на тему

Текущее время: Сегодня 13:54

Часовой пояс: GMT + 3



Вы не можете начинать темы
Вы не можете отвечать на сообщения
Вы не можете редактировать свои сообщения
Вы не можете удалять свои сообщения
Вы не можете голосовать в опросах
Вы не можете прикреплять файлы к сообщениям
Вы не можете скачивать файлы