Сегодня идет свободное скачивание без начисления Download

Миллениум: Трилогия (Девушка с татуировкой дракона / Девушка, которая играла с огнем / Девушка, которая взрывала воздушные замки)/ Män som hatar kvinnor / Flickan som lekte med elden / Luftslottet som sprängdes (2009) 3*DVD9

Ответить на тему
 
Автор
Сообщение

Omen ®

Стаж: 4 года 10 месяцев

Сообщений: 190643

Торрент-статистика

Пост 03-Сен-2011 23:06

[Цитировать]

Миллениум: Трилогия
Девушка с татуировкой дракона.
Девушка, которая играла с огнем.
Девушка, которая взрывала воздушные замки.
Män som hatar kvinnor / Flickan som lekte med elden / Luftslottet som sprängdes
-Девушка с татуировкой дракона / Män som hatar kvinnorРусское название: Девушка с татуировкой дракона
Оригинальное название: Män som hatar kvinnor
Год выпуска: 2009
Производство: Германия, Дания, Норвегия, Швеция
Жанр: Детектив
-Описание фильма:
Талантливый журналист Микаэль Блумквист оказывается на грани банкротства из-за присужденного штрафа за разоблачительную статью об одном банкире. Только острая нужда в деньгах заставляет его согласиться на неожиданное и крайне странное предложение: стареющий глава одного влиятельного бизнес-клана просит
журналиста раскрыть таинственное убийство его племянницы, которое произошло 36 лет назад. Помогать новоиспеченному детективу берется загадочная девушка Лисбет Саландер, обладающая не только феноменальным интеллектом, но и завидной физической подготовкой.
-Режиссер: Нильс Арден Оплев
Актеры: Микаэл Нюквист, Номи Рапас, Свен-Бертил Таубе, Питер Абер, Петер Андерссон
-Продолжительность: 02:26:33
Перевод: Дублированный [Лицензия]
Язык субтитров: Русский
Бонусы: Смотрите на DVD
- -Сэмпл: Скачать-Дата мировой премьеры: 27 февраля 2009
Дата российской премьеры: 2 сентября 2010
Дата выхода DVD релиза: 22 сентября 2010
Дата выхода Blu-Ray релиза: 22 сентября 2010
-Видеокодек: MPEG-2
Битрейт видео: ~4996 Кбит/сек
Размер кадра: PAL 16:9 (720x576) ~ (1024x576) Анаморфный DVD.
Качество видео: DVD9
Audio 1: AC-3, 384 Кбит/сек, 6 каналов, 48,0 КГц - Русский дублированный
Audio 2: AC-3, 384 Кбит/сек, 6 каналов, 48,0 КГц - Шведский
Audio 3: AC-3, 192 Кбит/сек, 2 канала, 48,0 КГц - Русский дублированный
Audio 4: AC-3, 192 Кбит/сек, 2 канала, 48,0 КГц - Шведский
-

MediaInfo

Общее
Полное имя : VTS_04_1.VOB
Формат : MPEG-PS
Размер файла : 1024 Мбайт
Продолжительность : 22 м.
Общий поток : 6273 Кбит/сек
Видео
Идентификатор : 224 (0xE0)
Формат : MPEG Video
Версия формата : Version 2
Профиль формата : Main@Main
Параметр BVOP формата : Да
Параметр матрицы формата : Выборочная
Продолжительность : 22 м.
Вид битрейта : Переменный
Битрейт : 4996 Кбит/сек
Максимальный битрейт : 6000 Кбит/сек
Ширина : 720 пикс.
Высота : 576 пикс.
Соотношение сторон : 16:9
Частота кадров : 25,000 кадр/сек
Стандарт вещания : PAL
Цветовое пространство : YUV
Подвыборка цветности : 4:2:0
Битовая глубина : 8 бит
Тип развёртки : Чересстрочная
Порядок развёртки : Верхнее поле первое
Метод сжатия : С потерями
Бит/(Пиксели*Кадры) : 0.482
Размер потока : 815 Мбайт (80%)
Аудио #1
Идентификатор : 189 (0xBD)-128 (0x80)
Формат : AC-3
Формат/Информация : Audio Coding 3
Расширение режима : CM (complete main)
Режим смешивания : DVD-Video
Продолжительность : 22 м.
Вид битрейта : Постоянный
Битрейт : 384 Кбит/сек
Каналы : 6 каналов
Расположение каналов : Front: L C R, Side: L R, LFE
Частота : 48,0 КГц
Битовая глубина : 16 бит
Метод сжатия : С потерями
Размер потока : 62,7 Мбайт (6%)
Аудио #2
Идентификатор : 189 (0xBD)-129 (0x81)
Формат : AC-3
Формат/Информация : Audio Coding 3
Расширение режима : CM (complete main)
Режим смешивания : DVD-Video
Продолжительность : 22 м.
Вид битрейта : Постоянный
Битрейт : 384 Кбит/сек
Каналы : 6 каналов
Расположение каналов : Front: L C R, Side: L R, LFE
Частота : 48,0 КГц
Битовая глубина : 16 бит
Метод сжатия : С потерями
Размер потока : 62,7 Мбайт (6%)
Аудио #3
Идентификатор : 189 (0xBD)-130 (0x82)
Формат : AC-3
Формат/Информация : Audio Coding 3
Расширение режима : CM (complete main)
Режим смешивания : DVD-Video
Продолжительность : 22 м.
Вид битрейта : Постоянный
Битрейт : 192 Кбит/сек
Каналы : 2 канала
Расположение каналов : Front: L R
Частота : 48,0 КГц
Битовая глубина : 16 бит
Метод сжатия : С потерями
Размер потока : 31,3 Мбайт (3%)
Аудио #4
Идентификатор : 189 (0xBD)-131 (0x83)
Формат : AC-3
Формат/Информация : Audio Coding 3
Расширение режима : CM (complete main)
Режим смешивания : DVD-Video
Продолжительность : 22 м.
Вид битрейта : Постоянный
Битрейт : 192 Кбит/сек
Каналы : 2 канала
Расположение каналов : Front: L R
Частота : 48,0 КГц
Битовая глубина : 16 бит
Метод сжатия : С потерями
Размер потока : 31,3 Мбайт (3%)
-

DVDInfo

Title: GIRL_TATOO
Size: 7.58 Gb ( 7 951 112,00 KBytes ) - DVD-9
Enabled regions: 1, 2, 3, 4, 5, 6
VTS_01 :
Play Length: 00:00:04
Video: PAL 16:9 (720x576) VBR, Auto Letterboxed
VTS_02 :
Play Length: 00:00:13
Video: PAL 16:9 (720x576) VBR, Auto Letterboxed
Audio:
Russian (Dolby AC3, 6 ch)
VTS_03 :
Play Length: 00:02:15
Video: PAL 16:9 (720x576) VBR, Auto Letterboxed
Audio:
Russian (Dolby AC3, 2 ch)
English (Dolby AC3, 2 ch)
Russian (Dolby AC3, 2 ch)
English (Dolby AC3, 2 ch)
Subtitles:
Russian
VTS_04 :
Play Length: 02:26:33
Video: PAL 16:9 (720x576) VBR, Auto Letterboxed
Audio:
Russian (Dolby AC3, 6 ch)
Svenska (Dolby AC3, 6 ch)
Russian (Dolby AC3, 2 ch)
Svenska (Dolby AC3, 2 ch)
Subtitles:
Russian
VTS_05 :
Play Length: 00:02:20
Video: PAL 16:9 (720x576) VBR, Auto Letterboxed
Audio:
Russian (Dolby AC3, 2 ch)
English (Dolby AC3, 2 ch)
Russian (Dolby AC3, 2 ch)
English (Dolby AC3, 2 ch)
Subtitles:
Russian
VTS_06 :
Play Length: 00:01:45
Video: PAL 16:9 (720x576) VBR, Auto Letterboxed
Audio:
Russian (Dolby AC3, 2 ch)
English (Dolby AC3, 2 ch)
Russian (Dolby AC3, 2 ch)
English (Dolby AC3, 2 ch)
Subtitles:
Russian
VTS_07 :
Play Length: 00:01:31
Video: PAL 16:9 (720x576) VBR, Auto Letterboxed
Audio:
Russian (Dolby AC3, 2 ch)
English (Dolby AC3, 2 ch)
Russian (Dolby AC3, 2 ch)
English (Dolby AC3, 2 ch)
Subtitles:
Russian
VTS_08 :
Play Length: 00:02:09
Video: PAL 16:9 (720x576) VBR, Auto Letterboxed
Audio:
Russian (Dolby AC3, 2 ch)
English (Dolby AC3, 2 ch)
Russian (Dolby AC3, 2 ch)
English (Dolby AC3, 2 ch)
Subtitles:
Russian
VTS_09 :
Play Length: 00:02:10
Video: PAL 16:9 (720x576) VBR, Auto Letterboxed
Audio:
Russian (Dolby AC3, 2 ch)
English (Dolby AC3, 2 ch)
Russian (Dolby AC3, 2 ch)
English (Dolby AC3, 2 ch)
Subtitles:
Russian
VTS_10 :
Play Length: 00:01:33
Video: PAL 4:3 (720x576) VBR
Audio:
Russian (Dolby AC3, 2 ch)
English (Dolby AC3, 2 ch)
Russian (Dolby AC3, 2 ch)
English (Dolby AC3, 2 ch)
Subtitles:
Russian
VTS_11 :
Play Length: 00:01:28
Video: PAL 4:3 (720x576) VBR
Audio:
Russian (Dolby AC3, 2 ch)
English (Dolby AC3, 2 ch)
Russian (Dolby AC3, 2 ch)
English (Dolby AC3, 2 ch)
Subtitles:
Russian
* Menus Information *
VIDEO_TS Menu
Video:
PAL 16:9 (720x576) VBR
Auto Pan&Scan, Auto Letterboxed
English Language Unit :
Title Menu
VTS_01 Menu
Video:
PAL 16:9 (720x576) VBR
Auto Letterboxed
Audio:
Not specified (Dolby AC3, 2 ch)
English Language Unit :
Root Menu
VTS_02 Menu
Video:
PAL 4:3 (720x576) VBR
English Language Unit :
Root Menu
VTS_03 Menu
Video:
PAL 4:3 (720x576) VBR
English Language Unit :
Root Menu
VTS_04 Menu
Video:
PAL 4:3 (720x576) VBR
English Language Unit :
Root Menu
VTS_05 Menu
Video:
PAL 4:3 (720x576) VBR
English Language Unit :
Root Menu
VTS_06 Menu
Video:
PAL 4:3 (720x576) VBR
English Language Unit :
Root Menu
VTS_07 Menu
Video:
PAL 4:3 (720x576) VBR
English Language Unit :
Root Menu
VTS_08 Menu
Video:
PAL 4:3 (720x576) VBR
English Language Unit :
Root Menu
VTS_09 Menu
Video:
PAL 4:3 (720x576) VBR
English Language Unit :
Root Menu
VTS_10 Menu
Video:
PAL 4:3 (720x576) VBR
English Language Unit :
Root Menu
VTS_11 Menu
Video:
PAL 4:3 (720x576) VBR
English Language Unit :
Root Menu
-

DVD меню

   
-Скриншоты:
     
     
-
Девушка, которая играла с огнем / Flickan som lekte med eldenРусское название: Девушка, которая играла с огнем
Оригинальное название: Flickan som lekte med elden
Год выпуска: 2009
Производство: Германия, Дания, Швеция
Жанр: Детектив
-Описание фильма:
В своей квартире найдены мертвыми два человека, готовившие разоблачительную публикацию для журнала "Миллениум" о поставках в Швецию секс-рабынь из Восточной Европы. Микаэль Блумквист начинает расследование. Вскоре выясняется, что в криминальный бизнес вовлечены представители властных структур, а в убийстве подозревают его давнюю знакомую Лисбет Саландер. По всей Швеции начинается охота на "убийцу-психопатку".-Режиссер: Дэниэл Альфредсон
Актеры: Номи Рапас, Микаэл Нюквист, Петер Андерссон, Ясмин Гарби, Паоло Роберто
Продолжительность: 02:04:15
Перевод: Многоголосый закадровый [Лицензия]
Язык субтитров: Русский
Бонусы: Смотрите на DVD
- -Сэмпл: Скачать-Дата мировой премьеры: 18 сентября 2009
Дата российской премьеры: 21 октября 2010
Дата выхода DVD релиза: 17 ноября 2010
Дата выхода Blu-Ray релиза: 8 декабря 2010
-Видеокодек: MPEG-2
Битрейт видео: ~7047 Кбит/сек
Размер кадра: PAL 16:9 (720x576) ~ (1024x576) Анаморфный DVD.
Качество видео: DVD9
Audio 1: AC-3, 384 Кбит/сек, 6 каналов, 48,0 КГц - Русский
Audio 2: AC-3, 384 Кбит/сек, 2 канала, 48,0 КГц - Русский
Audio 3: AC-3, 384 Кбит/сек, 6 каналов, 48,0 КГц - Шведский
-

MediaInfo

Общее
Полное имя : VTS_01_4.VOB
Формат : MPEG-PS
Размер файла : 1024 Мбайт
Продолжительность : 17 м.
Общий поток : 8366 Кбит/сек
Видео
Идентификатор : 224 (0xE0)
Формат : MPEG Video
Версия формата : Version 2
Профиль формата : Main@Main
Параметр BVOP формата : Да
Параметр матрицы формата : Выборочная
Параметры GOP формата : M=3, N=15
Продолжительность : 17 м.
Вид битрейта : Переменный
Битрейт : 7047 Кбит/сек
Максимальный битрейт : 8000 Кбит/сек
Ширина : 720 пикс.
Высота : 576 пикс.
Соотношение сторон : 16:9
Частота кадров : 25,000 кадр/сек
Стандарт вещания : PAL
Цветовое пространство : YUV
Подвыборка цветности : 4:2:0
Битовая глубина : 8 бит
Тип развёртки : Чересстрочная
Порядок развёртки : Верхнее поле первое
Метод сжатия : С потерями
Бит/(Пиксели*Кадры) : 0.680
Размер потока : 862 Мбайт (84%)
Аудио #1
Идентификатор : 189 (0xBD)-128 (0x80)
Формат : AC-3
Формат/Информация : Audio Coding 3
Расширение режима : CM (complete main)
Режим смешивания : DVD-Video
Продолжительность : 17 м.
Вид битрейта : Постоянный
Битрейт : 384 Кбит/сек
Каналы : 6 каналов
Расположение каналов : Front: L C R, Side: L R, LFE
Частота : 48,0 КГц
Битовая глубина : 16 бит
Метод сжатия : С потерями
Задержка видео : -256 мс.
Размер потока : 47,0 Мбайт (5%)
Аудио #2
Идентификатор : 189 (0xBD)-129 (0x81)
Формат : AC-3
Формат/Информация : Audio Coding 3
Расширение режима : CM (complete main)
Режим смешивания : DVD-Video
Продолжительность : 17 м.
Вид битрейта : Постоянный
Битрейт : 384 Кбит/сек
Каналы : 2 канала
Расположение каналов : Front: L R
Частота : 48,0 КГц
Битовая глубина : 16 бит
Метод сжатия : С потерями
Задержка видео : -256 мс.
Размер потока : 47,0 Мбайт (5%)
Аудио #3
Идентификатор : 189 (0xBD)-130 (0x82)
Формат : AC-3
Формат/Информация : Audio Coding 3
Расширение режима : CM (complete main)
Режим смешивания : DVD-Video
Продолжительность : 17 м.
Вид битрейта : Постоянный
Битрейт : 384 Кбит/сек
Каналы : 6 каналов
Расположение каналов : Front: L C R, Side: L R, LFE
Частота : 48,0 КГц
Битовая глубина : 16 бит
Метод сжатия : С потерями
Задержка видео : -256 мс.
Размер потока : 47,0 Мбайт (5%)
Текст
Идентификатор : 189 (0xBD)-32 (0x20)
Формат : RLE
Формат/Информация : Run-length encoding
Режим смешивания : DVD-Video
Продолжительность : 17 м.
Задержка видео : 2 с. 80 мс.
-

DVDInfo

Title:
Size: 7.60 Gb ( 7 968 564,00 KBytes ) - DVD-9
Enabled regions: 1, 2, 3, 4, 5, 6, 7, 8
VTS_01 :
Play Length: 00:00:01+02:04:14+00:00:01
Video: PAL 16:9 (720x576) VBR, Auto Letterboxed
Audio:
Russian (Dolby AC3, 6 ch)
Russian (Dolby AC3, 2 ch)
Svenska (Dolby AC3, 6 ch)
Subtitles:
Russian
VTS_02 :
Play Length: 00:00:01+00:00:05+00:00:13
Video: PAL 16:9 (720x576) VBR, Auto Letterboxed
Audio:
Russian (Dolby AC3, 6 ch)
VTS_03 :
Play Length: 00:00:01+00:01:46+00:00:01+00:00:15+{00:00:01}
Video: PAL 16:9 (720x576) VBR, Auto Letterboxed
Audio:
Russian (Dolby AC3, 2 ch)
VTS_04 :
Play Length: 00:00:01+00:02:16+00:00:01+00:00:01+00:01:46+00:00:01+00:00:01+00:02:13+00:00:01
Video: PAL 16:9 (720x576) VBR, Auto Letterboxed
Audio:
Russian (Dolby AC3, 2 ch)
VTS_05 :
Play Length: 00:00:01+00:02:05+00:00:01
Video: PAL 16:9 (720x576) VBR, Auto Letterboxed
Audio:
Russian (Dolby AC3, 6 ch)
VTS_06 :
Play Length: 00:00:01+00:01:50+00:00:01
Video: PAL 4:3 (720x576) VBR
Audio:
Russian (Dolby AC3, 2 ch)
VTS_07 :
Play Length: 00:00:01+00:01:29+00:00:01+00:00:01+00:01:50+00:00:01+00:00:01+00:02:09+00:00:01
Video: PAL 4:3 (720x576) VBR
Audio:
Russian (Dolby AC3, 2 ch)
* Menus Information *
VIDEO_TS Menu
Video:
NTSC 4:3 (720x480) VBR
Auto Pan&Scan, Auto Letterboxed
Russian Language Unit :
Title Menu
VTS_01 Menu
Video:
PAL 16:9 (720x576) VBR
Auto Letterboxed
Audio:
Not specified (Dolby AC3, 2 ch)
Russian Language Unit :
Root Menu
VTS_02 Menu
Video:
NTSC 4:3 (720x480) VBR
Auto Pan&Scan, Auto Letterboxed
Language Unit :
Angle menu
Language Unit :
Language Unit :
VTS_03 Menu
Video:
NTSC 4:3 (720x480) VBR
Auto Pan&Scan, Auto Letterboxed
Russian Language Unit :
Root Menu
VTS_04 Menu
Video:
NTSC 4:3 (720x480) VBR
Auto Pan&Scan, Auto Letterboxed
Russian Language Unit :
Root Menu
VTS_05 Menu
Video:
NTSC 4:3 (720x480) VBR
Auto Pan&Scan, Auto Letterboxed
Russian Language Unit :
Root Menu
VTS_06 Menu
Video:
NTSC 4:3 (720x480) VBR
Auto Pan&Scan, Auto Letterboxed
Russian Language Unit :
Root Menu
VTS_07 Menu
Video:
NTSC 4:3 (720x480) VBR
Auto Pan&Scan, Auto Letterboxed
Russian Language Unit :
Root Menu
-

DVD меню

   
-Скриншоты:
     
     
-
Девушка, которая взрывала воздушные замки / Luftslottet som sprängdesРусское название: Девушка, которая взрывала воздушные замки
Оригинальное название: Luftslottet som sprängdes
Год выпуска: 2009
Производство: Германия, Дания, Норвегия, Швеция
Жанр: Детектив
-Описание фильма:
Чудом избежав смерти от рук собственного отца, Лисбет Саландер находится под неусыпным наблюдением врачей и полиции. Вскоре она должна будет предстать
перед судом по обвинению в трех убийствах, которые она не совершала.
Но Лисбет не для того прошла все круги ада, чтоб попасть за решетку. С помощью своего друга, журналиста Микаэля Блумквиста, она намерена сполна отплатить
всем, кто когда-то превратил ее жизнь в кошмар. Ей нечего терять и Лисбет готова идти до конца…
-Режиссер: Дэниэл Альфредсон
Актеры: Микаэл Нюквист, Нуми Рапас, Анника Халлин, Лена Эндре, Джейкоб Эрикссон, София Ледарп
-Продолжительность: 02:20:55
Перевод: Многоголосый закадровый [Лицензия]
Язык субтитров: Русский
Бонусы: Смотрите на DVD
- -Сэмпл: Скачать-Дата мировой премьеры: 27 ноября 2009
Дата российской премьеры: 25 ноября 2010
Дата выхода DVD релиза: 8 декабря 2010
Дата выхода Blu-Ray релиза: 8 декабря 2010
-Видеокодек: MPEG-2
Битрейт видео: ~5495 Кбит/сек
Размер кадра: PAL 16:9 (720x576) ~ (1024x576) Анаморфный DVD.
Качество видео: DVD9
Audio 1: AC-3, 384 Кбит/сек, 6 каналов, 48,0 КГц - Русский
Audio 2: AC-3, 192 Кбит/сек, 2 канала, 48,0 КГц - Русский
Audio 3: AC-3, 384 Кбит/сек, 6 каналов, 48,0 КГц - Шведский
-

MediaInfo

Общее
Полное имя : VTS_01_4.VOB
Формат : MPEG-PS
Размер файла : 1024 Мбайт
Продолжительность : 21 м.
Общий поток : 6586 Кбит/сек
Видео
Идентификатор : 224 (0xE0)
Формат : MPEG Video
Версия формата : Version 2
Профиль формата : Main@Main
Параметр BVOP формата : Да
Параметр матрицы формата : Выборочная
Параметры GOP формата : M=3, N=15
Продолжительность : 21 м.
Битрейт : 5495 Кбит/сек
Максимальный битрейт : 5500 Кбит/сек
Ширина : 720 пикс.
Высота : 576 пикс.
Соотношение сторон : 16:9
Частота кадров : 25,000 кадр/сек
Стандарт вещания : PAL
Цветовое пространство : YUV
Подвыборка цветности : 4:2:0
Битовая глубина : 8 бит
Тип развёртки : Чересстрочная
Порядок развёртки : Верхнее поле первое
Метод сжатия : С потерями
Бит/(Пиксели*Кадры) : 0.530
Размер потока : 854 Мбайт (83%)
Аудио #1
Идентификатор : 189 (0xBD)-128 (0x80)
Формат : AC-3
Формат/Информация : Audio Coding 3
Расширение режима : CM (complete main)
Режим смешивания : DVD-Video
Продолжительность : 21 м.
Вид битрейта : Постоянный
Битрейт : 384 Кбит/сек
Каналы : 6 каналов
Расположение каналов : Front: L C R, Side: L R, LFE
Частота : 48,0 КГц
Битовая глубина : 16 бит
Метод сжатия : С потерями
Задержка видео : -256 мс.
Размер потока : 59,7 Мбайт (6%)
Аудио #2
Идентификатор : 189 (0xBD)-129 (0x81)
Формат : AC-3
Формат/Информация : Audio Coding 3
Расширение режима : CM (complete main)
Режим смешивания : DVD-Video
Продолжительность : 21 м.
Вид битрейта : Постоянный
Битрейт : 192 Кбит/сек
Каналы : 2 канала
Расположение каналов : Front: L R
Частота : 48,0 КГц
Битовая глубина : 16 бит
Метод сжатия : С потерями
Задержка видео : -256 мс.
Размер потока : 29,8 Мбайт (3%)
Аудио #3
Идентификатор : 189 (0xBD)-130 (0x82)
Формат : AC-3
Формат/Информация : Audio Coding 3
Расширение режима : CM (complete main)
Режим смешивания : DVD-Video
Продолжительность : 21 м.
Вид битрейта : Постоянный
Битрейт : 384 Кбит/сек
Каналы : 6 каналов
Расположение каналов : Front: L C R, Side: L R, LFE
Частота : 48,0 КГц
Битовая глубина : 16 бит
Метод сжатия : С потерями
Задержка видео : -256 мс.
Размер потока : 59,7 Мбайт (6%)
Текст
Идентификатор : 189 (0xBD)-32 (0x20)
Формат : RLE
Формат/Информация : Run-length encoding
Режим смешивания : DVD-Video
-

DVDInfo

Title:
Size: 7.55 Gb ( 7 920 592,00 KBytes ) - DVD-9
Enabled regions: 1, 2, 3, 4, 5, 6, 7, 8
VTS_01 :
Play Length: 00:00:01+02:20:55+00:00:01
Video: PAL 16:9 (720x576) VBR, Auto Letterboxed
Audio:
Russian (Dolby AC3, 6 ch)
Russian (Dolby AC3, 2 ch)
Svenska (Dolby AC3, 6 ch)
Subtitles:
Russian
VTS_02 :
Play Length: 00:00:01+00:00:05+00:00:13
Video: PAL 16:9 (720x576) VBR, Auto Letterboxed
Audio:
Russian (Dolby AC3, 6 ch)
VTS_03 :
Play Length: 00:00:01+00:01:46+00:00:01+00:00:15+{00:00:01}
Video: PAL 16:9 (720x576) VBR, Auto Letterboxed
Audio:
Russian (Dolby AC3, 2 ch)
VTS_04 :
Play Length: 00:00:01+00:02:16+00:00:01+00:00:01+00:01:46+00:00:01+00:00:01+00:02:13+00:00:01
Video: PAL 16:9 (720x576) VBR, Auto Letterboxed
Audio:
Russian (Dolby AC3, 2 ch)
VTS_05 :
Play Length: 00:00:01+00:02:05+00:00:01
Video: PAL 16:9 (720x576) VBR, Auto Letterboxed
Audio:
Russian (Dolby AC3, 6 ch)
VTS_06 :
Play Length: 00:00:01+00:01:29+00:00:01
Video: PAL 4:3 (720x576) VBR
Audio:
Russian (Dolby AC3, 2 ch)
VTS_07 :
Play Length: 00:00:01+00:01:29+00:00:01+00:00:01+00:01:50+00:00:01+00:00:01+00:02:09+00:00:01
Video: PAL 4:3 (720x576) VBR
Audio:
Russian (Dolby AC3, 2 ch)
* Menus Information *
VIDEO_TS Menu
Video:
NTSC 4:3 (720x480) VBR
Auto Pan&Scan, Auto Letterboxed
Russian Language Unit :
Title Menu
VTS_01 Menu
Video:
PAL 16:9 (720x576) VBR
Auto Letterboxed
Audio:
Not specified (Dolby AC3, 2 ch)
Russian Language Unit :
Root Menu
VTS_02 Menu
Video:
NTSC 4:3 (720x480) VBR
Auto Pan&Scan, Auto Letterboxed
Language Unit :
Angle menu
Language Unit :
Language Unit :
VTS_03 Menu
Video:
NTSC 4:3 (720x480) VBR
Auto Pan&Scan, Auto Letterboxed
Russian Language Unit :
Root Menu
VTS_04 Menu
Video:
NTSC 4:3 (720x480) VBR
Auto Pan&Scan, Auto Letterboxed
Russian Language Unit :
Root Menu
VTS_05 Menu
Video:
NTSC 4:3 (720x480) VBR
Auto Pan&Scan, Auto Letterboxed
Russian Language Unit :
Root Menu
VTS_06 Menu
Video:
NTSC 4:3 (720x480) VBR
Auto Pan&Scan, Auto Letterboxed
Russian Language Unit :
Root Menu
VTS_07 Menu
Video:
NTSC 4:3 (720x480) VBR
Auto Pan&Scan, Auto Letterboxed
Russian Language Unit :
Root Menu
-

DVD меню

   
-Скриншоты:
     
     


Последний раз редактировалось: Omen (2011-09-03 23:32), всего редактировалось 2 раз(а)
Вне форума [Профиль] [ЛС]
Показать сообщения:    
Ответить на тему

Текущее время: Сегодня 04:37

Часовой пояс: GMT + 3



Вы не можете начинать темы
Вы не можете отвечать на сообщения
Вы не можете редактировать свои сообщения
Вы не можете удалять свои сообщения
Вы не можете голосовать в опросах
Вы не можете прикреплять файлы к сообщениям
Вы не можете скачивать файлы