Сегодня идет свободное скачивание без начисления Download

Футурама / Futurama / Сезон: 7 / Серии: 1-25 из 26 (Мэтт Грейнинг / Matt Groening) [2012 г., анимация, комедия, фантастика, WEB-DLRip] DVO (Кубик в Кубе) [Обновляемая]

Ответить на тему
 
Автор
Сообщение

Omen ®

Стаж: 5 лет

Сообщений: 190529

Торрент-статистика

Пост 21-Июл-2013 12:15

[Цитировать]

Футурама
Futurama
- Русское название: Футурама
Оригинальное название: Futurama
Год выпуска: 2012
Жанр: Комедия
Язык: Русский, английский-Описание:
Сериал начинается с того, что разносчик пиццы из Нью-Йорка Филипп Джей Фрай случайно, как это кажется на первый взгляд, был заморожен в криогенной камере ровно в 00 часов 00 минут 00 секунд 1 января 2000 года. Он был разморожен тысячу лет спустя, 31 декабря 2999 года, и обнаружил себя в городе будущего Нью-Нью-Йорке. Знакомясь со своей будущей коллегой Турангой Лилой, Фрай пытается избежать принудительного назначения на работу курьером, кем он и был в прошлой жизни, и внедрения ему карьерного чипа — микросхемы, вшиваемой под кожу и определяющей род занятий своего носителя. Лила, в это время работающая инспектором по раздаче профессий, догоняя Фрая, чтобы вживить ему чип, в результате выслушивания речей Фрая о его прошлой никчемной жизни курьером, отказывается от работы инспектора, которая ей не по душе, и вместе они находят очень дальнего потомка Фрая (его пра-пра-пра-…-пра-внучатого племянника) Хьюберта Фарнсворта — маразматичного 160-летнего гениального ученого-склеротика, который берет их на работу в свою небольшую компанию «Межпланетный экспресс», занимающуюся межгалактическими грузоперевозками, на должность курьера. «Межпланетный экспресс» — это маленький бизнес профессора, окупающий его гениальные, но иногда весьма сомнительные исследования и изобретения.-Режиссер: Фрэнк Марино, Дуэйн Кэри-Хилл, Стивен Сандовал, Кристалл Чесни...
Персонажи: Билли Уэст, Кэти Сагал, Джон Ди Маджио, Тресс МакНилл, Морис ЛаМарш, Фил ЛаМарр, Лоурэн Том, Дэвид Херман...-Продолжительность: 25x ~ 00:22:00
Перевод: Профессиональный двухголосый закадровый
Озвучка: Кубик в Кубе
Автор перевода: Futuramer Team
Язык субтитров: русские (Futuramer Team) (серии 1, 2), английские (серии 1, 2)
Вид субтитров: Отдельным файлом-Видеокодек: Xvid
Битрейт видео: ~1345 kbps avg, 23.976 fps, 0.19 bit/pixel
Размер кадра: 720x400 (1.80:1)
Качество видео: WEB-DLRip
Аудиокодек: MP3, 2 канала
Битрейт аудио Русский: ~128.00 kbps avg
Битрейт аудио Английский: ~128.00 kbps avg
- -Скриншоты:
       
         
-

Список серий:

  • Пестики-тычинки (The Bots and the Bees)

  • Прощайте, ручки! (A Farewell to Arms)

  • Выборы 3012 (Decision 3012)

  • Человек в бумажной маске (The Thief of Baghead)

  • Зепп Буаг-ха (Zapp Dingbat)

  • Эффект баб-бочек (The Butterjunk Effect)

  • Мужик на шесть миллионов долларов (The Six Million Dollar Mon)

  • Развлечения на Бун (Fun on a Bun)

  • Освободите Волю (Free Will Hunting)

  • Предсмертное желание (Near-Death Wish)

  • Да здравствует Марс-Вегас! (Viva Mars Vegas)

  • Лис 31 века (31st Century Fox)

  • Натурама (Naturama)

    [img][/img]
  • Пространственный дрифт (2-D Blacktop)

  • Большой отпуск Фрая и Лилы (Fry and Leela's Big Fling)

  • Пришелец Ти (T.: The Terrestrial)

  • Сорокапроцентное свинцовое брюхо (Forty Percent Leadbelly)

  • Нечеловеческий факел (The Inhuman Torch)

  • Мультяшное веселье в субботу утром (Saturday Morning Fun Pit)

  • Калькулон 2.0 (Calculon 2.0)
  • Задик, вернись домой! (Assie Come Home)
  • Лила и генное дерево (Leela and the Genestalk)
  • Игра пресТОНОВ (Game of Tones)
  • Убийство на планетном экспрессе (Murder on the Planet Express)
  • Разум и овоняние (Stench and Stenchibility)
-

MediaInfo

Код:
Format : AVI
Format/Info : Audio Video Interleave
File size : 250 MiB
Duration : 21mn 38s
Overall bit rate : 1 616 Kbps
Writing application : VirtualDubMod 1.5.10.2 (build 2542/release)
Writing library : VirtualDubMod build 2542/release
Video
ID : 0
Format : MPEG-4 Visual
Format profile : Advanced Simple@L5
Format settings, BVOP : 1
Format settings, QPel : No
Format settings, GMC : No warppoints
Format settings, Matrix : Default (MPEG)
Codec ID : XVID
Codec ID/Hint : XviD
Duration : 21mn 38s
Bit rate : 1 346 Kbps
Width : 720 pixels
Height : 400 pixels
Display aspect ratio : 16:9
Frame rate : 23.976 fps
Color space : YUV
Chroma subsampling : 4:2:0
Bit depth : 8 bits
Scan type : Progressive
Compression mode : Lossy
Bits/(Pixel*Frame) : 0.195
Stream size : 208 MiB (83%)
Writing library : XviD 1.2.1 (UTC 2008-12-04)
Audio #1
ID : 1
Format : MPEG Audio
Format version : Version 1
Format profile : Layer 3
Mode : Joint stereo
Mode extension : MS Stereo
Codec ID : 55
Codec ID/Hint : MP3
Duration : 21mn 38s
Bit rate mode : Constant
Bit rate : 128 Kbps
Channel(s) : 2 channels
Sampling rate : 48.0 KHz
Compression mode : Lossy
Stream size : 19.8 MiB (8%)
Alignment : Aligned on interleaves
Interleave, duration : 42 ms (1.00 video frame)
Interleave, preload duration : 504 ms
Audio #2
ID : 2
Format : MPEG Audio
Format version : Version 1
Format profile : Layer 3
Mode : Joint stereo
Mode extension : MS Stereo
Codec ID : 55
Codec ID/Hint : MP3
Duration : 21mn 38s
Bit rate mode : Constant
Bit rate : 128 Kbps
Channel(s) : 2 channels
Sampling rate : 48.0 KHz
Compression mode : Lossy
Stream size : 19.8 MiB (8%)
Alignment : Aligned on interleaves
Interleave, duration : 42 ms (1.00 video frame)
Interleave, preload duration : 504 ms
518428 & RT
-

Как скачивать новые серии:

серии, пользователям необходимо сделать следующее:
1. Остановить скачивание;
2. Удалить старый торрент-файл у себя из клиента (старые серии удалять не надо);
3. Скачать новый торрент-файл и запустить его у себя в клиенте вместо старого, при этом указать клиенту путь в старую папку, куда и должно происходить скачивание новых серий.
Ваш клиент при этом должен произвести хеширование (проверку) старой папки (если не производит сам - помогите ему сделать это), и будет докачивать только те серии, которых у вас ещё нет. Старые серии при этом не удаляются, а продолжают раздаваться.
Eсли вы уже удалили старые серии, то предотвратить повторную закачку старых серий можно, отжав галочку в соответсвующих местах при запуске нового торрента. По возможности, желательно, не удалять старые серии как можно дольше, чтобы релизёр не столько продолжал раздавать старые серии, а смог сконцентрироваться на новых.
-Добавлена двадцать пятая серия седьмого сезона
Вне форума [Профиль] [ЛС]
Показать сообщения:    
Ответить на тему

Текущее время: Сегодня 16:12

Часовой пояс: GMT + 3



Вы не можете начинать темы
Вы не можете отвечать на сообщения
Вы не можете редактировать свои сообщения
Вы не можете удалять свои сообщения
Вы не можете голосовать в опросах
Вы не можете прикреплять файлы к сообщениям
Вы не можете скачивать файлы